  0
SECTION
  2
HEADER
  9
$ACADVER
  1
AC1015
  9
$ACADMAINTVER
 70
    20
  9
$DWGCODEPAGE
  3
ANSI_936
  9
$INSBASE
 10
0.0
 20
0.0
 30
0.0
  9
$EXTMIN
 10
32.43798882946467
 20
35.65812660789652
 30
0.0
  9
$EXTMAX
 10
157.1896941500649
 20
273.4352770537365
 30
0.0
  9
$LIMMIN
 10
0.0
 20
0.0
  9
$LIMMAX
 10
420.0
 20
297.0
  9
$ORTHOMODE
 70
     0
  9
$REGENMODE
 70
     1
  9
$FILLMODE
 70
     1
  9
$QTEXTMODE
 70
     0
  9
$MIRRTEXT
 70
     0
  9
$LTSCALE
 40
1.0
  9
$ATTMODE
 70
     1
  9
$TEXTSIZE
 40
2.5
  9
$TRACEWID
 40
1.0
  9
$TEXTSTYLE
  7
Standard
  9
$CLAYER
  8
0
  9
$CELTYPE
  6
ByLayer
  9
$CECOLOR
 62
   256
  9
$CELTSCALE
 40
1.0
  9
$DISPSILH
 70
     0
  9
$DIMSCALE
 40
1.0
  9
$DIMASZ
 40
2.5
  9
$DIMEXO
 40
0.625
  9
$DIMDLI
 40
3.75
  9
$DIMRND
 40
0.0
  9
$DIMDLE
 40
0.0
  9
$DIMEXE
 40
1.25
  9
$DIMTP
 40
0.0
  9
$DIMTM
 40
0.0
  9
$DIMTXT
 40
2.5
  9
$DIMCEN
 40
2.5
  9
$DIMTSZ
 40
0.0
  9
$DIMTOL
 70
     0
  9
$DIMLIM
 70
     0
  9
$DIMTIH
 70
     0
  9
$DIMTOH
 70
     0
  9
$DIMSE1
 70
     0
  9
$DIMSE2
 70
     0
  9
$DIMTAD
 70
     1
  9
$DIMZIN
 70
     8
  9
$DIMBLK
  1

  9
$DIMASO
 70
     1
  9
$DIMSHO
 70
     1
  9
$DIMPOST
  1

  9
$DIMAPOST
  1

  9
$DIMALT
 70
     0
  9
$DIMALTD
 70
     3
  9
$DIMALTF
 40
0.03937007874016
  9
$DIMLFAC
 40
1.0
  9
$DIMTOFL
 70
     1
  9
$DIMTVP
 40
0.0
  9
$DIMTIX
 70
     0
  9
$DIMSOXD
 70
     0
  9
$DIMSAH
 70
     0
  9
$DIMBLK1
  1

  9
$DIMBLK2
  1

  9
$DIMSTYLE
  2
ISO-25
  9
$DIMCLRD
 70
     0
  9
$DIMCLRE
 70
     0
  9
$DIMCLRT
 70
     0
  9
$DIMTFAC
 40
1.0
  9
$DIMGAP
 40
0.625
  9
$DIMJUST
 70
     0
  9
$DIMSD1
 70
     0
  9
$DIMSD2
 70
     0
  9
$DIMTOLJ
 70
     0
  9
$DIMTZIN
 70
     8
  9
$DIMALTZ
 70
     0
  9
$DIMALTTZ
 70
     0
  9
$DIMUPT
 70
     0
  9
$DIMDEC
 70
     2
  9
$DIMTDEC
 70
     2
  9
$DIMALTU
 70
     2
  9
$DIMALTTD
 70
     3
  9
$DIMTXSTY
  7
Standard
  9
$DIMAUNIT
 70
     0
  9
$DIMADEC
 70
     0
  9
$DIMALTRND
 40
0.0
  9
$DIMAZIN
 70
     0
  9
$DIMDSEP
 70
    46
  9
$DIMATFIT
 70
     3
  9
$DIMFRAC
 70
     0
  9
$DIMLDRBLK
  1

  9
$DIMLUNIT
 70
     2
  9
$DIMLWD
 70
    -2
  9
$DIMLWE
 70
    -2
  9
$DIMTMOVE
 70
     0
  9
$LUNITS
 70
     2
  9
$LUPREC
 70
     4
  9
$SKETCHINC
 40
1.0
  9
$FILLETRAD
 40
0.0
  9
$AUNITS
 70
     0
  9
$AUPREC
 70
     0
  9
$MENU
  1
.
  9
$ELEVATION
 40
0.0
  9
$PELEVATION
 40
0.0
  9
$THICKNESS
 40
0.0
  9
$LIMCHECK
 70
     0
  9
$CHAMFERA
 40
0.0
  9
$CHAMFERB
 40
0.0
  9
$CHAMFERC
 40
0.0
  9
$CHAMFERD
 40
0.0
  9
$SKPOLY
 70
     0
  9
$TDCREATE
 40
2455768.649369028
  9
$TDUCREATE
 40
2455768.316035694
  9
$TDUPDATE
 40
2458649.343840405
  9
$TDUUPDATE
 40
2458649.010507072
  9
$TDINDWG
 40
0.0016318519
  9
$TDUSRTIMER
 40
0.0016314931
  9
$USRTIMER
 70
     1
  9
$ANGBASE
 50
0.0
  9
$ANGDIR
 70
     0
  9
$PDMODE
 70
     0
  9
$PDSIZE
 40
0.0
  9
$PLINEWID
 40
0.0
  9
$SPLFRAME
 70
     0
  9
$SPLINETYPE
 70
     6
  9
$SPLINESEGS
 70
     8
  9
$HANDSEED
  5
38F
  9
$SURFTAB1
 70
     6
  9
$SURFTAB2
 70
     6
  9
$SURFTYPE
 70
     6
  9
$SURFU
 70
     6
  9
$SURFV
 70
     6
  9
$UCSBASE
  2

  9
$UCSNAME
  2

  9
$UCSORG
 10
0.0
 20
0.0
 30
0.0
  9
$UCSXDIR
 10
1.0
 20
0.0
 30
0.0
  9
$UCSYDIR
 10
0.0
 20
1.0
 30
0.0
  9
$UCSORTHOREF
  2

  9
$UCSORTHOVIEW
 70
     0
  9
$UCSORGTOP
 10
0.0
 20
0.0
 30
0.0
  9
$UCSORGBOTTOM
 10
0.0
 20
0.0
 30
0.0
  9
$UCSORGLEFT
 10
0.0
 20
0.0
 30
0.0
  9
$UCSORGRIGHT
 10
0.0
 20
0.0
 30
0.0
  9
$UCSORGFRONT
 10
0.0
 20
0.0
 30
0.0
  9
$UCSORGBACK
 10
0.0
 20
0.0
 30
0.0
  9
$PUCSBASE
  2

  9
$PUCSNAME
  2

  9
$PUCSORG
 10
0.0
 20
0.0
 30
0.0
  9
$PUCSXDIR
 10
1.0
 20
0.0
 30
0.0
  9
$PUCSYDIR
 10
0.0
 20
1.0
 30
0.0
  9
$PUCSORTHOREF
  2

  9
$PUCSORTHOVIEW
 70
     0
  9
$PUCSORGTOP
 10
0.0
 20
0.0
 30
0.0
  9
$PUCSORGBOTTOM
 10
0.0
 20
0.0
 30
0.0
  9
$PUCSORGLEFT
 10
0.0
 20
0.0
 30
0.0
  9
$PUCSORGRIGHT
 10
0.0
 20
0.0
 30
0.0
  9
$PUCSORGFRONT
 10
0.0
 20
0.0
 30
0.0
  9
$PUCSORGBACK
 10
0.0
 20
0.0
 30
0.0
  9
$USERI1
 70
     0
  9
$USERI2
 70
     0
  9
$USERI3
 70
     0
  9
$USERI4
 70
     0
  9
$USERI5
 70
     0
  9
$USERR1
 40
0.0
  9
$USERR2
 40
0.0
  9
$USERR3
 40
0.0
  9
$USERR4
 40
0.0
  9
$USERR5
 40
2.5
  9
$WORLDVIEW
 70
     1
  9
$SHADEDGE
 70
     3
  9
$SHADEDIF
 70
    70
  9
$TILEMODE
 70
     1
  9
$MAXACTVP
 70
    64
  9
$PINSBASE
 10
0.0
 20
0.0
 30
0.0
  9
$PLIMCHECK
 70
     0
  9
$PEXTMIN
 10
1.000000000000000E+20
 20
1.000000000000000E+20
 30
1.000000000000000E+20
  9
$PEXTMAX
 10
-1.000000000000000E+20
 20
-1.000000000000000E+20
 30
-1.000000000000000E+20
  9
$PLIMMIN
 10
0.0
 20
0.0
  9
$PLIMMAX
 10
420.0
 20
297.0
  9
$UNITMODE
 70
     0
  9
$VISRETAIN
 70
     1
  9
$PLINEGEN
 70
     0
  9
$PSLTSCALE
 70
     1
  9
$TREEDEPTH
 70
  3020
  9
$CMLSTYLE
  2
Standard
  9
$CMLJUST
 70
     0
  9
$CMLSCALE
 40
20.0
  9
$PROXYGRAPHICS
 70
     1
  9
$MEASUREMENT
 70
     1
  9
$CELWEIGHT
370
    -1
  9
$ENDCAPS
280
     0
  9
$JOINSTYLE
280
     0
  9
$LWDISPLAY
290
     0
  9
$INSUNITS
 70
     4
  9
$HYPERLINKBASE
  1

  9
$STYLESHEET
  1

  9
$XEDIT
290
     1
  9
$CEPSNTYPE
380
     0
  9
$PSTYLEMODE
290
     1
  9
$FINGERPRINTGUID
  2
{4081A11A-D92A-436D-8BCD-A3C13E37701A}
  9
$VERSIONGUID
  2
{04B7950F-6D7E-4DB5-B7B0-86589ED88A09}
  9
$EXTNAMES
290
     1
  9
$PSVPSCALE
 40
0.0
  9
$OLESTARTUP
290
     0
  0
ENDSEC
  0
SECTION
  2
CLASSES
  0
CLASS
  1
ACDBDICTIONARYWDFLT
  2
AcDbDictionaryWithDefault
  3
ObjectDBX Classes
 90
        0
280
     0
281
     0
  0
CLASS
  1
DIMASSOC
  2
AcDbDimAssoc
  3
"AcDbDimAssoc|Product Desc:     AcDim ARX App For Dimension|Company:          Autodesk, Inc.|WEB Address:      www.autodesk.com"
 90
        0
280
     0
281
     0
  0
CLASS
  1
MATERIAL
  2
AcDbMaterial
  3
ObjectDBX Classes
 90
     1153
280
     0
281
     0
  0
CLASS
  1
VISUALSTYLE
  2
AcDbVisualStyle
  3
ObjectDBX Classes
 90
     4095
280
     0
281
     0
  0
CLASS
  1
TABLESTYLE
  2
AcDbTableStyle
  3
ObjectDBX Classes
 90
     4095
280
     0
281
     0
  0
CLASS
  1
SCALE
  2
AcDbScale
  3
ObjectDBX Classes
 90
     1153
280
     0
281
     0
  0
CLASS
  1
MLEADERSTYLE
  2
AcDbMLeaderStyle
  3
ACDB_MLEADERSTYLE_CLASS
 90
     4095
280
     0
281
     0
  0
CLASS
  1
VLO-VL
  2
vlo_VL
  3
VL|AutoLISP based application
 90
      129
280
     0
281
     0
  0
CLASS
  1
DICTIONARYVAR
  2
AcDbDictionaryVar
  3
ObjectDBX Classes
 90
        0
280
     0
281
     0
  0
CLASS
  1
CELLSTYLEMAP
  2
AcDbCellStyleMap
  3
ObjectDBX Classes
 90
     1152
280
     0
281
     0
  0
CLASS
  1
ACDBPLACEHOLDER
  2
AcDbPlaceHolder
  3
ObjectDBX Classes
 90
        0
280
     0
281
     0
  0
CLASS
  1
LAYOUT
  2
AcDbLayout
  3
ObjectDBX Classes
 90
        0
280
     0
281
     0
  0
ENDSEC
  0
SECTION
  2
TABLES
  0
TABLE
  2
VPORT
  5
8
330
0
100
AcDbSymbolTable
 70
     1
  0
VPORT
  5
317
330
8
100
AcDbSymbolTableRecord
100
AcDbViewportTableRecord
  2
*Active
 70
     0
 10
0.0
 20
0.0
 11
1.0
 21
1.0
 12
87.77581338736718
 22
202.6408966466613
 13
0.0
 23
0.0
 14
10.0
 24
10.0
 15
10.0
 25
10.0
 16
0.0
 26
0.0
 36
1.0
 17
0.0
 27
0.0
 37
0.0
 40
21.44245758501349
 41
1.622972972972972
 42
50.0
 43
0.0
 44
0.0
 50
0.0
 51
0.0
 71
     0
 72
  1000
 73
     1
 74
     3
 75
     0
 76
     0
 77
     0
 78
     0
281
     0
 65
     1
110
0.0
120
0.0
130
0.0
111
1.0
121
0.0
131
0.0
112
0.0
122
1.0
132
0.0
 79
     0
146
0.0
  0
ENDTAB
  0
TABLE
  2
LTYPE
  5
5
330
0
100
AcDbSymbolTable
 70
     3
  0
LTYPE
  5
14
330
5
100
AcDbSymbolTableRecord
100
AcDbLinetypeTableRecord
  2
ByBlock
 70
     0
  3

 72
    65
 73
     0
 40
0.0
  0
LTYPE
  5
15
330
5
100
AcDbSymbolTableRecord
100
AcDbLinetypeTableRecord
  2
ByLayer
 70
     0
  3

 72
    65
 73
     0
 40
0.0
  0
LTYPE
  5
16
330
5
100
AcDbSymbolTableRecord
100
AcDbLinetypeTableRecord
  2
Continuous
 70
     0
  3
Solid line
 72
    65
 73
     0
 40
0.0
  0
LTYPE
  5
B5
330
5
100
AcDbSymbolTableRecord
100
AcDbLinetypeTableRecord
  2
CENTER2
 70
     0
  3
Center (.5x) ___ _ ___ _ ___ _ ___ _ ___ _ ___
 72
    65
 73
     4
 40
28.575
 49
19.05
 74
     0
 49
-3.174999999999998
 74
     0
 49
3.174999999999998
 74
     0
 49
-3.174999999999998
 74
     0
  0
LTYPE
  5
B6
330
5
100
AcDbSymbolTableRecord
100
AcDbLinetypeTableRecord
  2
HIDDEN2
 70
     0
  3
Hidden (.5x) _ _ _ _ _ _ _ _ _ _ _ _ _ _ _ _ _
 72
    65
 73
     2
 40
4.762499999999998
 49
3.174999999999998
 74
     0
 49
-1.587499999999999
 74
     0
  0
ENDTAB
  0
TABLE
  2
LAYER
  5
2
102
{ACAD_XDICTIONARY
360
BF
102
}
330
0
100
AcDbSymbolTable
 70
     6
  0
LAYER
  5
10
102
{ACAD_XDICTIONARY
360
36F
102
}
330
2
100
AcDbSymbolTableRecord
100
AcDbLayerTableRecord
  2
0
 70
     0
 62
     7
  6
Continuous
370
    -3
390
F
  0
LAYER
  5
B7
102
{ACAD_XDICTIONARY
360
371
102
}
330
2
100
AcDbSymbolTableRecord
100
AcDbLayerTableRecord
  2
中心线
 70
     0
 62
     1
  6
CENTER2
370
     9
390
F
  0
LAYER
  5
B8
102
{ACAD_XDICTIONARY
360
373
102
}
330
2
100
AcDbSymbolTableRecord
100
AcDbLayerTableRecord
  2
虚线
 70
     0
 62
     4
  6
HIDDEN2
370
     9
390
F
  0
LAYER
  5
B9
330
2
100
AcDbSymbolTableRecord
100
AcDbLayerTableRecord
  2
Defpoints
 70
     0
 62
     7
  6
Continuous
290
     0
370
    -3
390
F
  0
LAYER
  5
BA
102
{ACAD_XDICTIONARY
360
375
102
}
330
2
100
AcDbSymbolTableRecord
100
AcDbLayerTableRecord
  2
标注
 70
     0
 62
    80
  6
Continuous
370
     9
390
F
1001
AcAecLayerStandard
1000

1000

  0
LAYER
  5
BB
102
{ACAD_XDICTIONARY
360
377
102
}
330
2
100
AcDbSymbolTableRecord
100
AcDbLayerTableRecord
  2
截面层
 70
     0
 62
     6
  6
Continuous
370
    40
390
F
  0
ENDTAB
  0
TABLE
  2
STYLE
  5
3
330
0
100
AcDbSymbolTable
 70
     1
  0
STYLE
  5
11
330
3
100
AcDbSymbolTableRecord
100
AcDbTextStyleTableRecord
  2
Standard
 70
     0
 40
0.0
 41
1.0
 50
0.0
 71
     0
 42
2.5
  3
txt
  4

  0
ENDTAB
  0
TABLE
  2
VIEW
  5
6
330
0
100
AcDbSymbolTable
 70
     0
  0
ENDTAB
  0
TABLE
  2
UCS
  5
7
330
0
100
AcDbSymbolTable
 70
     0
  0
ENDTAB
  0
TABLE
  2
APPID
  5
9
330
0
100
AcDbSymbolTable
 70
     3
  0
APPID
  5
12
330
9
100
AcDbSymbolTableRecord
100
AcDbRegAppTableRecord
  2
ACAD
 70
     0
  0
APPID
  5
BE
330
9
100
AcDbSymbolTableRecord
100
AcDbRegAppTableRecord
  2
AcAecLayerStandard
 70
     0
  0
APPID
  5
369
330
9
100
AcDbSymbolTableRecord
100
AcDbRegAppTableRecord
  2
ACAD_MLEADERVER
 70
     0
  0
ENDTAB
  0
TABLE
  2
DIMSTYLE
  5
A
330
0
100
AcDbSymbolTable
 70
     3
100
AcDbDimStyleTable
 71
     0
  0
DIMSTYLE
105
29
330
A
100
AcDbSymbolTableRecord
100
AcDbDimStyleTableRecord
  2
ISO-25
 70
     0
 41
2.5
 42
0.625
 43
3.75
 44
1.25
 73
     0
 74
     0
 77
     1
 78
     8
140
2.5
141
2.5
143
0.03937007874016
147
0.625
171
     3
172
     1
271
     2
272
     2
274
     3
283
     0
284
     8
340
11
  0
DIMSTYLE
105
BC
330
A
100
AcDbSymbolTableRecord
100
AcDbDimStyleTableRecord
  2
Standard
 70
     0
340
11
  0
DIMSTYLE
105
BD
102
{ACAD_REACTORS
330
1DA
330
1DD
330
1E0
330
1F6
330
1FD
330
200
330
201
330
202
330
203
330
204
330
205
102
}
330
A
100
AcDbSymbolTableRecord
100
AcDbDimStyleTableRecord
  2
副本Standard
 70
     0
  3
"
  4
"
 41
0.65
 42
0.88
 43
0.015
 44
0.32
 73
     0
 74
     0
 78
     8
 79
     2
140
0.65
143
0.03937
147
0.2
171
     1
172
     1
176
   256
177
   256
178
   256
179
     1
271
     3
272
     3
274
     1
276
     2
277
     5
278
    44
340
11
  0
ENDTAB
  0
TABLE
  2
BLOCK_RECORD
  5
1
330
0
100
AcDbSymbolTable
 70
    23
  0
BLOCK_RECORD
  5
21
330
1
100
AcDbSymbolTableRecord
100
AcDbBlockTableRecord
  2
*Model_Space
340
24
  0
BLOCK_RECORD
  5
1D
330
1
100
AcDbSymbolTableRecord
100
AcDbBlockTableRecord
  2
*Paper_Space
340
20
  0
BLOCK_RECORD
  5
25
330
1
100
AcDbSymbolTableRecord
100
AcDbBlockTableRecord
  2
*Paper_Space0
340
28
  0
BLOCK_RECORD
  5
2D
330
1
100
AcDbSymbolTableRecord
100
AcDbBlockTableRecord
  2
*D1
340
0
  0
BLOCK_RECORD
  5
3A
330
1
100
AcDbSymbolTableRecord
100
AcDbBlockTableRecord
  2
*D2
340
0
  0
BLOCK_RECORD
  5
47
330
1
100
AcDbSymbolTableRecord
100
AcDbBlockTableRecord
  2
*D3
340
0
  0
BLOCK_RECORD
  5
54
330
1
100
AcDbSymbolTableRecord
100
AcDbBlockTableRecord
  2
*D4
340
0
  0
BLOCK_RECORD
  5
61
330
1
100
AcDbSymbolTableRecord
100
AcDbBlockTableRecord
  2
*D5
340
0
  0
BLOCK_RECORD
  5
6E
330
1
100
AcDbSymbolTableRecord
100
AcDbBlockTableRecord
  2
*D6
340
0
  0
BLOCK_RECORD
  5
7B
330
1
100
AcDbSymbolTableRecord
100
AcDbBlockTableRecord
  2
*D7
340
0
  0
BLOCK_RECORD
  5
83
330
1
100
AcDbSymbolTableRecord
100
AcDbBlockTableRecord
  2
*D8
340
0
  0
BLOCK_RECORD
  5
8B
330
1
100
AcDbSymbolTableRecord
100
AcDbBlockTableRecord
  2
*D9
340
0
  0
BLOCK_RECORD
  5
99
330
1
100
AcDbSymbolTableRecord
100
AcDbBlockTableRecord
  2
*D10
340
0
  0
BLOCK_RECORD
  5
A7
330
1
100
AcDbSymbolTableRecord
100
AcDbBlockTableRecord
  2
*D11
340
0
  0
BLOCK_RECORD
  5
238
330
1
100
AcDbSymbolTableRecord
100
AcDbBlockTableRecord
  2
*D12
340
0
  0
BLOCK_RECORD
  5
246
330
1
100
AcDbSymbolTableRecord
100
AcDbBlockTableRecord
  2
*D13
340
0
  0
BLOCK_RECORD
  5
253
330
1
100
AcDbSymbolTableRecord
100
AcDbBlockTableRecord
  2
*D14
340
0
  0
BLOCK_RECORD
  5
260
330
1
100
AcDbSymbolTableRecord
100
AcDbBlockTableRecord
  2
*D15
340
0
  0
BLOCK_RECORD
  5
26D
330
1
100
AcDbSymbolTableRecord
100
AcDbBlockTableRecord
  2
*D16
340
0
  0
BLOCK_RECORD
  5
27A
330
1
100
AcDbSymbolTableRecord
100
AcDbBlockTableRecord
  2
*D17
340
0
  0
BLOCK_RECORD
  5
287
330
1
100
AcDbSymbolTableRecord
100
AcDbBlockTableRecord
  2
*D18
340
0
  0
BLOCK_RECORD
  5
294
330
1
100
AcDbSymbolTableRecord
100
AcDbBlockTableRecord
  2
*D19
340
0
  0
BLOCK_RECORD
  5
2A2
330
1
100
AcDbSymbolTableRecord
100
AcDbBlockTableRecord
  2
*D20
340
0
  0
BLOCK_RECORD
  5
2BB
330
1
100
AcDbSymbolTableRecord
100
AcDbBlockTableRecord
  2
*D21
340
0
  0
BLOCK_RECORD
  5
2C3
330
1
100
AcDbSymbolTableRecord
100
AcDbBlockTableRecord
  2
*D22
340
0
  0
ENDTAB
  0
ENDSEC
  0
SECTION
  2
BLOCKS
  0
BLOCK
  5
22
330
21
100
AcDbEntity
  8
0
100
AcDbBlockBegin
  2
*Model_Space
 70
     0
 10
0.0
 20
0.0
 30
0.0
  3
*Model_Space
  1

  0
ENDBLK
  5
23
330
21
100
AcDbEntity
  8
0
100
AcDbBlockEnd
  0
BLOCK
  5
1E
330
1D
100
AcDbEntity
 67
     1
  8
0
100
AcDbBlockBegin
  2
*Paper_Space
 70
     0
 10
0.0
 20
0.0
 30
0.0
  3
*Paper_Space
  1

  0
ENDBLK
  5
1F
330
1D
100
AcDbEntity
 67
     1
  8
0
100
AcDbBlockEnd
  0
BLOCK
  5
26
330
25
100
AcDbEntity
 67
     1
  8
0
100
AcDbBlockBegin
  2
*Paper_Space0
 70
     0
 10
0.0
 20
0.0
 30
0.0
  3
*Paper_Space0
  1

  0
ENDBLK
  5
27
330
25
100
AcDbEntity
 67
     1
  8
0
100
AcDbBlockEnd
  0
BLOCK
  5
2E
330
2D
100
AcDbEntity
  8
0
100
AcDbBlockBegin
  2
*D1
 70
     1
 10
0.0
 20
0.0
 30
0.0
  3
*D1
  1

  0
LINE
  5
2F
330
2D
100
AcDbEntity
  8
标注
370
    -2
100
AcDbLine
 10
298.4314432158509
 20
174.0473651475924
 30
0.0
 11
307.9108132945918
 21
174.0473651475924
 31
0.0
  0
LINE
  5
30
330
2D
100
AcDbEntity
  8
标注
370
    -2
100
AcDbLine
 10
298.4314432158509
 20
155.5434281397183
 30
0.0
 11
307.9108132945918
 21
155.5434281397183
 31
0.0
  0
LINE
  5
31
330
2D
100
AcDbEntity
  8
标注
370
    -2
100
AcDbLine
 10
307.5908132945918
 20
173.3973651475924
 30
0.0
 11
307.5908132945918
 21
167.2479201906082
 31
0.0
  0
LINE
  5
32
330
2D
100
AcDbEntity
  8
标注
370
    -2
100
AcDbLine
 10
307.5908132945918
 20
156.1934281397183
 30
0.0
 11
307.5908132945918
 21
163.1645868572749
 31
0.0
  0
SOLID
  5
33
330
2D
100
AcDbEntity
  8
标注
100
AcDbTrace
 10
307.4824799612585
 20
173.3973651475924
 30
0.0
 11
307.6991466279251
 21
173.3973651475924
 31
0.0
 12
307.5908132945918
 22
174.0473651475924
 32
0.0
 13
307.5908132945918
 23
174.0473651475924
 33
0.0
  0
SOLID
  5
34
330
2D
100
AcDbEntity
  8
标注
100
AcDbTrace
 10
307.4824799612585
 20
156.1934281397183
 30
0.0
 11
307.6991466279251
 21
156.1934281397183
 31
0.0
 12
307.5908132945918
 22
155.5434281397183
 32
0.0
 13
307.5908132945918
 23
155.5434281397183
 33
0.0
  0
MTEXT
  5
35
330
2D
100
AcDbEntity
  8
标注
100
AcDbMText
 10
307.5908132945917
 20
165.2062535239416
 30
0.0
 40
0.65
 41
0.0
 71
     5
 72
     1
  1
\A1;18 1/2"
 11
0.0000000000000001
 21
1.0
 31
0.0
 73
     1
 44
1.0
1001
ACAD
1000
MTEXTBEGIN
1070
    73
1070
     1
1070
    44
1040
1.0
1070
    74
1070
     0
1000
MTEXTEND
  0
POINT
  5
36
330
2D
100
AcDbEntity
  8
Defpoints
 62
     0
100
AcDbPoint
 10
297.5514432158509
 20
174.0473651475924
 30
0.0
  0
POINT
  5
37
330
2D
100
AcDbEntity
  8
Defpoints
 62
     0
100
AcDbPoint
 10
297.5514432158509
 20
155.5434281397183
 30
0.0
  0
POINT
  5
38
330
2D
100
AcDbEntity
  8
Defpoints
 62
     0
100
AcDbPoint
 10
307.5908132945918
 20
155.5434281397183
 30
0.0
  0
ENDBLK
  5
39
330
2D
100
AcDbEntity
  8
0
100
AcDbBlockEnd
  0
BLOCK
  5
3B
330
3A
100
AcDbEntity
  8
0
100
AcDbBlockBegin
  2
*D2
 70
     1
 10
0.0
 20
0.0
 30
0.0
  3
*D2
  1

  0
LINE
  5
3C
330
3A
100
AcDbEntity
  8
标注
370
    -2
100
AcDbLine
 10
294.6912857355359
 20
173.0631131790884
 30
0.0
 11
305.5486085701822
 21
173.0631131790884
 31
0.0
  0
LINE
  5
3D
330
3A
100
AcDbEntity
  8
标注
370
    -2
100
AcDbLine
 10
294.6912857355366
 20
156.5276801082223
 30
0.0
 11
305.5486085701822
 21
156.5276801082223
 31
0.0
  0
LINE
  5
3E
330
3A
100
AcDbEntity
  8
标注
370
    -2
100
AcDbLine
 10
305.2286085701822
 20
172.4131131790884
 30
0.0
 11
305.2286085701822
 21
166.837063310322
 31
0.0
  0
LINE
  5
3F
330
3A
100
AcDbEntity
  8
标注
370
    -2
100
AcDbLine
 10
305.2286085701822
 20
157.1776801082223
 30
0.0
 11
305.2286085701822
 21
162.7537299769886
 31
0.0
  0
SOLID
  5
40
330
3A
100
AcDbEntity
  8
标注
100
AcDbTrace
 10
305.1202752368488
 20
172.4131131790884
 30
0.0
 11
305.3369419035155
 21
172.4131131790884
 31
0.0
 12
305.2286085701822
 22
173.0631131790884
 32
0.0
 13
305.2286085701822
 23
173.0631131790884
 33
0.0
  0
SOLID
  5
41
330
3A
100
AcDbEntity
  8
标注
100
AcDbTrace
 10
305.1202752368488
 20
157.1776801082223
 30
0.0
 11
305.3369419035155
 21
157.1776801082223
 31
0.0
 12
305.2286085701822
 22
156.5276801082223
 32
0.0
 13
305.2286085701822
 23
156.5276801082223
 33
0.0
  0
MTEXT
  5
42
330
3A
100
AcDbEntity
  8
标注
100
AcDbMText
 10
305.2286085701821
 20
164.7953966436554
 30
0.0
 40
0.65
 41
0.0
 71
     5
 72
     1
  1
\A1;16 1/2"
 11
0.0000000000000001
 21
1.0
 31
0.0
 73
     1
 44
1.0
1001
ACAD
1000
MTEXTBEGIN
1070
    73
1070
     1
1070
    44
1040
1.0
1070
    74
1070
     0
1000
MTEXTEND
  0
POINT
  5
43
330
3A
100
AcDbEntity
  8
Defpoints
 62
     0
100
AcDbPoint
 10
293.8112857355359
 20
173.0631131790884
 30
0.0
  0
POINT
  5
44
330
3A
100
AcDbEntity
  8
Defpoints
 62
     0
100
AcDbPoint
 10
293.8112857355366
 20
156.5276801082223
 30
0.0
  0
POINT
  5
45
330
3A
100
AcDbEntity
  8
Defpoints
 62
     0
100
AcDbPoint
 10
305.2286085701822
 20
156.5276801082223
 30
0.0
  0
ENDBLK
  5
46
330
3A
100
AcDbEntity
  8
0
100
AcDbBlockEnd
  0
BLOCK
  5
48
330
47
100
AcDbEntity
  8
0
100
AcDbBlockBegin
  2
*D3
 70
     1
 10
0.0
 20
0.0
 30
0.0
  3
*D3
  1

  0
LINE
  5
49
330
47
100
AcDbEntity
  8
标注
370
    -2
100
AcDbLine
 10
270.7797896725438
 20
163.915396643655
 30
0.0
 11
270.7797896725438
 21
152.0738218405058
 31
0.0
  0
LINE
  5
4A
330
47
100
AcDbEntity
  8
标注
370
    -2
100
AcDbLine
 10
285.3467188064021
 20
163.9153966436554
 30
0.0
 11
285.3467188064021
 21
152.0738218405058
 31
0.0
  0
LINE
  5
4B
330
47
100
AcDbEntity
  8
标注
370
    -2
100
AcDbLine
 10
271.4297896725437
 20
152.3938218405058
 30
0.0
 11
275.913254239473
 21
152.3938218405058
 31
0.0
  0
LINE
  5
4C
330
47
100
AcDbEntity
  8
标注
370
    -2
100
AcDbLine
 10
284.6967188064022
 20
152.3938218405058
 30
0.0
 11
280.2132542394729
 21
152.3938218405058
 31
0.0
  0
SOLID
  5
4D
330
47
100
AcDbEntity
  8
标注
100
AcDbTrace
 10
271.4297896725437
 20
152.5021551738391
 30
0.0
 11
271.4297896725437
 21
152.2854885071724
 31
0.0
 12
270.7797896725438
 22
152.3938218405058
 32
0.0
 13
270.7797896725438
 23
152.3938218405058
 33
0.0
  0
SOLID
  5
4E
330
47
100
AcDbEntity
  8
标注
100
AcDbTrace
 10
284.6967188064022
 20
152.5021551738391
 30
0.0
 11
284.6967188064022
 21
152.2854885071724
 31
0.0
 12
285.3467188064021
 22
152.3938218405058
 32
0.0
 13
285.3467188064021
 23
152.3938218405058
 33
0.0
  0
MTEXT
  5
4F
330
47
100
AcDbEntity
  8
标注
100
AcDbMText
 10
278.0632542394729
 20
152.3938218405058
 30
0.0
 40
0.65
 41
0.0
 71
     5
 72
     1
  1
\A1;14 5/8"
 73
     1
 44
1.0
1001
ACAD
1000
MTEXTBEGIN
1070
    73
1070
     1
1070
    44
1040
1.0
1070
    74
1070
     0
1000
MTEXTEND
  0
POINT
  5
50
330
47
100
AcDbEntity
  8
Defpoints
 62
     0
100
AcDbPoint
 10
270.7797896725438
 20
164.7953966436551
 30
0.0
  0
POINT
  5
51
330
47
100
AcDbEntity
  8
Defpoints
 62
     0
100
AcDbPoint
 10
285.3467188064021
 20
164.7953966436554
 30
0.0
  0
POINT
  5
52
330
47
100
AcDbEntity
  8
Defpoints
 62
     0
100
AcDbPoint
 10
285.3467188064021
 20
152.3938218405058
 30
0.0
  0
ENDBLK
  5
53
330
47
100
AcDbEntity
  8
0
100
AcDbBlockEnd
  0
BLOCK
  5
55
330
54
100
AcDbEntity
  8
0
100
AcDbBlockBegin
  2
*D4
 70
     1
 10
0.0
 20
0.0
 30
0.0
  3
*D4
  1

  0
LINE
  5
56
330
54
100
AcDbEntity
  8
标注
370
    -2
100
AcDbLine
 10
286.5278211686068
 20
163.9153966436544
 30
0.0
 11
286.5278211686068
 21
152.0738218405058
 31
0.0
  0
LINE
  5
57
330
54
100
AcDbEntity
  8
标注
370
    -2
100
AcDbLine
 10
301.0947503024652
 20
163.9153966436545
 30
0.0
 11
301.0947503024652
 21
152.0738218405058
 31
0.0
  0
LINE
  5
58
330
54
100
AcDbEntity
  8
标注
370
    -2
100
AcDbLine
 10
287.1778211686068
 20
152.3938218405058
 30
0.0
 11
291.6612857355359
 21
152.3938218405058
 31
0.0
  0
LINE
  5
59
330
54
100
AcDbEntity
  8
标注
370
    -2
100
AcDbLine
 10
300.4447503024652
 20
152.3938218405058
 30
0.0
 11
295.9612857355359
 21
152.3938218405058
 31
0.0
  0
SOLID
  5
5A
330
54
100
AcDbEntity
  8
标注
100
AcDbTrace
 10
287.1778211686068
 20
152.5021551738391
 30
0.0
 11
287.1778211686068
 21
152.2854885071724
 31
0.0
 12
286.5278211686068
 22
152.3938218405058
 32
0.0
 13
286.5278211686068
 23
152.3938218405058
 33
0.0
  0
SOLID
  5
5B
330
54
100
AcDbEntity
  8
标注
100
AcDbTrace
 10
300.4447503024652
 20
152.5021551738391
 30
0.0
 11
300.4447503024652
 21
152.2854885071724
 31
0.0
 12
301.0947503024652
 22
152.3938218405058
 32
0.0
 13
301.0947503024652
 23
152.3938218405058
 33
0.0
  0
MTEXT
  5
5C
330
54
100
AcDbEntity
  8
标注
100
AcDbMText
 10
293.8112857355359
 20
152.3938218405058
 30
0.0
 40
0.65
 41
0.0
 71
     5
 72
     1
  1
\A1;14 5/8"
 73
     1
 44
1.0
1001
ACAD
1000
MTEXTBEGIN
1070
    73
1070
     1
1070
    44
1040
1.0
1070
    74
1070
     0
1000
MTEXTEND
  0
POINT
  5
5D
330
54
100
AcDbEntity
  8
Defpoints
 62
     0
100
AcDbPoint
 10
286.5278211686068
 20
164.7953966436544
 30
0.0
  0
POINT
  5
5E
330
54
100
AcDbEntity
  8
Defpoints
 62
     0
100
AcDbPoint
 10
301.0947503024652
 20
164.7953966436545
 30
0.0
  0
POINT
  5
5F
330
54
100
AcDbEntity
  8
Defpoints
 62
     0
100
AcDbPoint
 10
301.0947503024652
 20
152.3938218405058
 30
0.0
  0
ENDBLK
  5
60
330
54
100
AcDbEntity
  8
0
100
AcDbBlockEnd
  0
BLOCK
  5
62
330
61
100
AcDbEntity
  8
0
100
AcDbBlockBegin
  2
*D5
 70
     1
 10
0.0
 20
0.0
 30
0.0
  3
*D5
  1

  0
LINE
  5
63
330
61
100
AcDbEntity
  8
标注
370
    -2
100
AcDbLine
 10
269.7955377040399
 20
159.1909871948369
 30
0.0
 11
269.7955377040399
 21
149.7116171160963
 31
0.0
  0
LINE
  5
64
330
61
100
AcDbEntity
  8
标注
370
    -2
100
AcDbLine
 10
302.079002270969
 20
159.1909871948365
 30
0.0
 11
302.079002270969
 21
149.7116171160963
 31
0.0
  0
LINE
  5
65
330
61
100
AcDbEntity
  8
标注
370
    -2
100
AcDbLine
 10
270.4455377040399
 20
150.0316171160963
 30
0.0
 11
283.7872699875051
 21
150.0316171160963
 31
0.0
  0
LINE
  5
66
330
61
100
AcDbEntity
  8
标注
370
    -2
100
AcDbLine
 10
301.429002270969
 20
150.0316171160963
 30
0.0
 11
288.087269987505
 21
150.0316171160963
 31
0.0
  0
SOLID
  5
67
330
61
100
AcDbEntity
  8
标注
100
AcDbTrace
 10
270.4455377040399
 20
150.1399504494296
 30
0.0
 11
270.4455377040399
 21
149.923283782763
 31
0.0
 12
269.7955377040399
 22
150.0316171160963
 32
0.0
 13
269.7955377040399
 23
150.0316171160963
 33
0.0
  0
SOLID
  5
68
330
61
100
AcDbEntity
  8
标注
100
AcDbTrace
 10
301.429002270969
 20
150.1399504494296
 30
0.0
 11
301.429002270969
 21
149.923283782763
 31
0.0
 12
302.079002270969
 22
150.0316171160963
 32
0.0
 13
302.079002270969
 23
150.0316171160963
 33
0.0
  0
MTEXT
  5
69
330
61
100
AcDbEntity
  8
标注
100
AcDbMText
 10
285.937269987505
 20
150.0316171160963
 30
0.0
 40
0.65
 41
0.0
 71
     5
 72
     1
  1
\A1;32 1/4"
 73
     1
 44
1.0
1001
ACAD
1000
MTEXTBEGIN
1070
    73
1070
     1
1070
    44
1040
1.0
1070
    74
1070
     0
1000
MTEXTEND
  0
POINT
  5
6A
330
61
100
AcDbEntity
  8
Defpoints
 62
     0
100
AcDbPoint
 10
269.7955377040399
 20
160.0709871948369
 30
0.0
  0
POINT
  5
6B
330
61
100
AcDbEntity
  8
Defpoints
 62
     0
100
AcDbPoint
 10
302.079002270969
 20
160.0709871948365
 30
0.0
  0
POINT
  5
6C
330
61
100
AcDbEntity
  8
Defpoints
 62
     0
100
AcDbPoint
 10
302.079002270969
 20
150.0316171160963
 30
0.0
  0
ENDBLK
  5
6D
330
61
100
AcDbEntity
  8
0
100
AcDbBlockEnd
  0
BLOCK
  5
6F
330
6E
100
AcDbEntity
  8
0
100
AcDbBlockBegin
  2
*D6
 70
     1
 10
0.0
 20
0.0
 30
0.0
  3
*D6
  1

  0
LINE
  5
70
330
6E
100
AcDbEntity
  8
标注
370
    -2
100
AcDbLine
 10
302.9590022709691
 20
194.8459729868869
 30
0.0
 11
305.5486085701822
 21
194.8459729868869
 31
0.0
  0
LINE
  5
71
330
6E
100
AcDbEntity
  8
标注
370
    -2
100
AcDbLine
 10
296.6363263917209
 20
184.8435750513687
 30
0.0
 11
305.5486085701822
 21
184.8435750513687
 31
0.0
  0
LINE
  5
72
330
6E
100
AcDbEntity
  8
标注
370
    -2
100
AcDbLine
 10
305.2286085701822
 20
194.1959729868869
 30
0.0
 11
305.2286085701822
 21
190.6406073524613
 31
0.0
  0
LINE
  5
73
330
6E
100
AcDbEntity
  8
标注
370
    -2
100
AcDbLine
 10
305.2286085701822
 20
185.4935750513686
 30
0.0
 11
305.2286085701822
 21
189.0489406857947
 31
0.0
  0
SOLID
  5
74
330
6E
100
AcDbEntity
  8
标注
100
AcDbTrace
 10
305.1202752368488
 20
194.1959729868869
 30
0.0
 11
305.3369419035155
 21
194.1959729868869
 31
0.0
 12
305.2286085701822
 22
194.8459729868869
 32
0.0
 13
305.2286085701822
 23
194.8459729868869
 33
0.0
  0
SOLID
  5
75
330
6E
100
AcDbEntity
  8
标注
100
AcDbTrace
 10
305.1202752368488
 20
185.4935750513686
 30
0.0
 11
305.3369419035155
 21
185.4935750513686
 31
0.0
 12
305.2286085701822
 22
184.8435750513687
 32
0.0
 13
305.2286085701822
 23
184.8435750513687
 33
0.0
  0
MTEXT
  5
76
330
6E
100
AcDbEntity
  8
标注
100
AcDbMText
 10
305.2286085701821
 20
189.844774019128
 30
0.0
 40
0.65
 41
0.0
 71
     5
 72
     1
  1
\A1;10"
 11
0.0000000000000001
 21
1.0
 31
0.0
 73
     1
 44
1.0
1001
ACAD
1000
MTEXTBEGIN
1070
    73
1070
     1
1070
    44
1040
1.0
1070
    74
1070
     0
1000
MTEXTEND
  0
POINT
  5
77
330
6E
100
AcDbEntity
  8
Defpoints
 62
     0
100
AcDbPoint
 10
302.0790022709691
 20
194.8459729868869
 30
0.0
  0
POINT
  5
78
330
6E
100
AcDbEntity
  8
Defpoints
 62
     0
100
AcDbPoint
 10
295.7563263917209
 20
184.8435750513687
 30
0.0
  0
POINT
  5
79
330
6E
100
AcDbEntity
  8
Defpoints
 62
     0
100
AcDbPoint
 10
305.2286085701822
 20
184.8435750513687
 30
0.0
  0
ENDBLK
  5
7A
330
6E
100
AcDbEntity
  8
0
100
AcDbBlockEnd
  0
BLOCK
  5
7C
330
7B
100
AcDbEntity
  8
0
100
AcDbBlockBegin
  2
*D7
 70
     1
 10
0.0
 20
0.0
 30
0.0
  3
*D7
  1

  0
LINE
  5
7D
330
7B
100
AcDbEntity
  8
标注
370
    -2
100
AcDbLine
 10
272.3802601939204
 20
186.4502615270354
 30
0.0
 11
271.904174108131
 21
186.0077210894279
 31
0.0
  0
MTEXT
  5
7E
330
7B
100
AcDbEntity
  8
标注
100
AcDbMText
 10
273.955006477685
 20
187.9140491283523
 30
0.0
 40
0.65
 41
0.0
 71
     5
 72
     1
  1
\A1;R1 3/8"
 11
0.7324401319835672
 21
0.6808314424730213
 31
0.0
 73
     1
 44
1.0
1001
ACAD
1000
MTEXTBEGIN
1070
    73
1070
     1
1070
    44
1040
1.0
1070
    74
1070
     0
1000
MTEXTEND
  0
SOLID
  5
7F
330
7B
100
AcDbEntity
  8
标注
100
AcDbTrace
 10
271.8304173685297
 20
186.0870687703928
 30
0.0
 11
271.9779308477323
 21
185.928373408463
 31
0.0
 12
271.4280880223417
 22
185.5651806518205
 32
0.0
 13
271.4280880223417
 23
185.5651806518205
 33
0.0
  0
POINT
  5
80
330
7B
100
AcDbEntity
  8
Defpoints
 62
     0
100
AcDbPoint
 10
271.4280880223417
 20
185.5651806518205
 30
0.0
  0
POINT
  5
81
330
7B
100
AcDbEntity
  8
Defpoints
 62
     0
100
AcDbPoint
 10
272.4373559207436
 20
186.5033342142827
 30
0.0
  0
ENDBLK
  5
82
330
7B
100
AcDbEntity
  8
0
100
AcDbBlockEnd
  0
BLOCK
  5
84
330
83
100
AcDbEntity
  8
0
100
AcDbBlockBegin
  2
*D8
 70
     1
 10
0.0
 20
0.0
 30
0.0
  3
*D8
  1

  0
LINE
  5
85
330
83
100
AcDbEntity
  8
标注
370
    -2
100
AcDbLine
 10
273.2557835882594
 20
158.3571383786317
 30
0.0
 11
272.8916930626125
 21
157.8186793837823
 31
0.0
  0
MTEXT
  5
86
330
83
100
AcDbEntity
  8
标注
100
AcDbMText
 10
274.460083019245
 20
160.1381950539028
 30
0.0
 40
0.65
 41
0.0
 71
     5
 72
     1
  1
\A1;R3 1/2"
 11
0.5601392702258745
 21
0.8283984536144577
 31
0.0
 73
     1
 44
1.0
1001
ACAD
1000
MTEXTBEGIN
1070
    73
1070
     1
1070
    44
1040
1.0
1070
    74
1070
     0
1000
MTEXTEND
  0
SOLID
  5
87
330
83
100
AcDbEntity
  8
标注
100
AcDbTrace
 10
272.8019498968043
 20
157.8793611380566
 30
0.0
 11
272.9814362284208
 21
157.7579976295078
 31
0.0
 12
272.5276025369657
 22
157.2802203889329
 32
0.0
 13
272.5276025369657
 23
157.2802203889329
 33
0.0
  0
POINT
  5
88
330
83
100
AcDbEntity
  8
Defpoints
 62
     0
100
AcDbPoint
 10
272.5276025369657
 20
157.2802203889329
 30
0.0
  0
POINT
  5
89
330
83
100
AcDbEntity
  8
Defpoints
 62
     0
100
AcDbPoint
 10
274.5123479826479
 20
160.2154905001651
 30
0.0
  0
ENDBLK
  5
8A
330
83
100
AcDbEntity
  8
0
100
AcDbBlockEnd
  0
BLOCK
  5
8C
330
8B
100
AcDbEntity
  8
0
100
AcDbBlockBegin
  2
*D9
 70
     1
 10
0.0
 20
0.0
 30
0.0
  3
*D9
  1

  0
LINE
  5
8D
330
8B
100
AcDbEntity
  8
标注
370
    -2
100
AcDbLine
 10
294.6912857355366
 20
156.5276801082223
 30
0.0
 11
305.5486085701822
 21
156.5276801082223
 31
0.0
  0
LINE
  5
8E
330
8B
100
AcDbEntity
  8
标注
370
    -2
100
AcDbLine
 10
298.4314432158509
 20
155.5434281397183
 30
0.0
 11
305.5486085701822
 21
155.5434281397183
 31
0.0
  0
LINE
  5
8F
330
8B
100
AcDbEntity
  8
标注
370
    -2
100
AcDbLine
 10
305.2286085701822
 20
157.1776801082223
 30
0.0
 11
305.2286085701822
 21
157.8276801082223
 31
0.0
  0
LINE
  5
90
330
8B
100
AcDbEntity
  8
标注
370
    -2
100
AcDbLine
 10
305.2286085701822
 20
154.8934281397183
 30
0.0
 11
305.2286085701822
 21
154.2434281397184
 31
0.0
  0
LINE
  5
91
330
8B
100
AcDbEntity
  8
标注
370
    -2
100
AcDbLine
 10
305.2286085701822
 20
156.5276801082223
 30
0.0
 11
305.2286085701822
 21
155.5434281397183
 31
0.0
  0
SOLID
  5
92
330
8B
100
AcDbEntity
  8
标注
100
AcDbTrace
 10
305.1202752368488
 20
157.1776801082223
 30
0.0
 11
305.3369419035155
 21
157.1776801082223
 31
0.0
 12
305.2286085701822
 22
156.5276801082223
 32
0.0
 13
305.2286085701822
 23
156.5276801082223
 33
0.0
  0
SOLID
  5
93
330
8B
100
AcDbEntity
  8
标注
100
AcDbTrace
 10
305.1202752368488
 20
154.8934281397183
 30
0.0
 11
305.3369419035155
 21
154.8934281397183
 31
0.0
 12
305.2286085701822
 22
155.5434281397183
 32
0.0
 13
305.2286085701822
 23
155.5434281397183
 33
0.0
  0
MTEXT
  5
94
330
8B
100
AcDbEntity
  8
标注
100
AcDbMText
 10
305.2286085701821
 20
153.7184281397184
 30
0.0
 40
0.65
 41
0.0
 71
     5
 72
     1
  1
\A1;1"
 11
0.0000000000000001
 21
1.0
 31
0.0
 73
     1
 44
1.0
1001
ACAD
1000
MTEXTBEGIN
1070
    73
1070
     1
1070
    44
1040
1.0
1070
    74
1070
     0
1000
MTEXTEND
  0
POINT
  5
95
330
8B
100
AcDbEntity
  8
Defpoints
 62
     0
100
AcDbPoint
 10
293.8112857355366
 20
156.5276801082223
 30
0.0
  0
POINT
  5
96
330
8B
100
AcDbEntity
  8
Defpoints
 62
     0
100
AcDbPoint
 10
297.5514432158509
 20
155.5434281397183
 30
0.0
  0
POINT
  5
97
330
8B
100
AcDbEntity
  8
Defpoints
 62
     0
100
AcDbPoint
 10
305.2286085701822
 20
155.5434281397183
 30
0.0
  0
ENDBLK
  5
98
330
8B
100
AcDbEntity
  8
0
100
AcDbBlockEnd
  0
BLOCK
  5
9A
330
99
100
AcDbEntity
  8
0
100
AcDbBlockBegin
  2
*D10
 70
     1
 10
0.0
 20
0.0
 30
0.0
  3
*D10
  1

  0
LINE
  5
9B
330
99
100
AcDbEntity
  8
标注
370
    -2
100
AcDbLine
 10
301.0947503024652
 20
163.0353966436545
 30
0.0
 11
301.0947503024652
 21
152.0738218405058
 31
0.0
  0
LINE
  5
9C
330
99
100
AcDbEntity
  8
标注
370
    -2
100
AcDbLine
 10
302.0790022709691
 20
159.1909871948365
 30
0.0
 11
302.0790022709691
 21
152.0738218405058
 31
0.0
  0
LINE
  5
9D
330
99
100
AcDbEntity
  8
标注
370
    -2
100
AcDbLine
 10
300.4447503024652
 20
152.3938218405058
 30
0.0
 11
299.7947503024652
 21
152.3938218405058
 31
0.0
  0
LINE
  5
9E
330
99
100
AcDbEntity
  8
标注
370
    -2
100
AcDbLine
 10
302.7290022709692
 20
152.3938218405058
 30
0.0
 11
303.3790022709691
 21
152.3938218405058
 31
0.0
  0
LINE
  5
9F
330
99
100
AcDbEntity
  8
标注
370
    -2
100
AcDbLine
 10
301.0947503024652
 20
152.3938218405058
 30
0.0
 11
302.0790022709691
 21
152.3938218405058
 31
0.0
  0
SOLID
  5
A0
330
99
100
AcDbEntity
  8
标注
100
AcDbTrace
 10
300.4447503024652
 20
152.5021551738391
 30
0.0
 11
300.4447503024652
 21
152.2854885071724
 31
0.0
 12
301.0947503024652
 22
152.3938218405058
 32
0.0
 13
301.0947503024652
 23
152.3938218405058
 33
0.0
  0
SOLID
  5
A1
330
99
100
AcDbEntity
  8
标注
100
AcDbTrace
 10
302.7290022709692
 20
152.5021551738391
 30
0.0
 11
302.7290022709692
 21
152.2854885071724
 31
0.0
 12
302.0790022709691
 22
152.3938218405058
 32
0.0
 13
302.0790022709691
 23
152.3938218405058
 33
0.0
  0
MTEXT
  5
A2
330
99
100
AcDbEntity
  8
标注
100
AcDbMText
 10
303.9040022709691
 20
152.3938218405058
 30
0.0
 40
0.65
 41
0.0
 71
     5
 72
     1
  1
\A1;1"
 73
     1
 44
1.0
1001
ACAD
1000
MTEXTBEGIN
1070
    73
1070
     1
1070
    44
1040
1.0
1070
    74
1070
     0
1000
MTEXTEND
  0
POINT
  5
A3
330
99
100
AcDbEntity
  8
Defpoints
 62
     0
100
AcDbPoint
 10
301.0947503024652
 20
163.9153966436545
 30
0.0
  0
POINT
  5
A4
330
99
100
AcDbEntity
  8
Defpoints
 62
     0
100
AcDbPoint
 10
302.0790022709691
 20
160.0709871948365
 30
0.0
  0
POINT
  5
A5
330
99
100
AcDbEntity
  8
Defpoints
 62
     0
100
AcDbPoint
 10
302.0790022709691
 20
152.3938218405058
 30
0.0
  0
ENDBLK
  5
A6
330
99
100
AcDbEntity
  8
0
100
AcDbBlockEnd
  0
BLOCK
  5
A8
330
A7
100
AcDbEntity
  8
0
100
AcDbBlockBegin
  2
*D11
 70
     1
 10
0.0
 20
0.0
 30
0.0
  3
*D11
  1

  0
LINE
  5
A9
330
A7
100
AcDbEntity
  8
标注
370
    -2
100
AcDbLine
 10
285.3467188064021
 20
165.6753966436554
 30
0.0
 11
285.3467188064021
 21
165.1153966436553
 31
0.0
  0
LINE
  5
AA
330
A7
100
AcDbEntity
  8
标注
370
    -2
100
AcDbLine
 10
286.5278211686068
 20
165.6753966436554
 30
0.0
 11
286.5278211686068
 21
165.1153966436553
 31
0.0
  0
LINE
  5
AB
330
A7
100
AcDbEntity
  8
标注
370
    -2
100
AcDbLine
 10
284.6967188064022
 20
164.7953966436554
 30
0.0
 11
284.0467188064021
 21
164.7953966436554
 31
0.0
  0
LINE
  5
AC
330
A7
100
AcDbEntity
  8
标注
370
    -2
100
AcDbLine
 10
287.1778211686068
 20
164.7953966436554
 30
0.0
 11
287.8278211686068
 21
164.7953966436554
 31
0.0
  0
LINE
  5
AD
330
A7
100
AcDbEntity
  8
标注
370
    -2
100
AcDbLine
 10
285.3467188064021
 20
164.7953966436554
 30
0.0
 11
286.5278211686068
 21
164.7953966436554
 31
0.0
  0
SOLID
  5
AE
330
A7
100
AcDbEntity
  8
标注
100
AcDbTrace
 10
284.6967188064022
 20
164.9037299769886
 30
0.0
 11
284.6967188064022
 21
164.687063310322
 31
0.0
 12
285.3467188064021
 22
164.7953966436554
 32
0.0
 13
285.3467188064021
 23
164.7953966436554
 33
0.0
  0
SOLID
  5
AF
330
A7
100
AcDbEntity
  8
标注
100
AcDbTrace
 10
287.1778211686068
 20
164.9037299769886
 30
0.0
 11
287.1778211686068
 21
164.687063310322
 31
0.0
 12
286.5278211686068
 22
164.7953966436554
 32
0.0
 13
286.5278211686068
 23
164.7953966436554
 33
0.0
  0
MTEXT
  5
B0
330
A7
100
AcDbEntity
  8
标注
100
AcDbMText
 10
289.5444878352734
 20
164.7953966436554
 30
0.0
 40
0.65
 41
0.0
 71
     5
 72
     1
  1
\A1;1 1/8"
 73
     1
 44
1.0
1001
ACAD
1000
MTEXTBEGIN
1070
    73
1070
     1
1070
    44
1040
1.0
1070
    74
1070
     0
1000
MTEXTEND
  0
POINT
  5
B1
330
A7
100
AcDbEntity
  8
Defpoints
 62
     0
100
AcDbPoint
 10
285.3467188064021
 20
164.7953966436554
 30
0.0
  0
POINT
  5
B2
330
A7
100
AcDbEntity
  8
Defpoints
 62
     0
100
AcDbPoint
 10
286.5278211686068
 20
164.7953966436554
 30
0.0
  0
POINT
  5
B3
330
A7
100
AcDbEntity
  8
Defpoints
 62
     0
100
AcDbPoint
 10
286.5278211686068
 20
164.7953966436554
 30
0.0
  0
ENDBLK
  5
B4
330
A7
100
AcDbEntity
  8
0
100
AcDbBlockEnd
  0
BLOCK
  5
244
330
238
100
AcDbEntity
  8
0
100
AcDbBlockBegin
  2
*D12
 70
     1
 10
0.0
 20
0.0
 30
0.0
  3
*D12
  1

  0
LINE
  5
2B0
330
238
100
AcDbEntity
  8
标注
370
    -2
100
AcDbLine
 10
101.4108321546955
 20
174.8797412429679
 30
0.0
 11
112.2681549893411
 21
174.8797412429679
 31
0.0
  0
LINE
  5
2B1
330
238
100
AcDbEntity
  8
标注
370
    -2
100
AcDbLine
 10
105.1509896350098
 20
173.8954892744638
 30
0.0
 11
112.2681549893411
 21
173.8954892744638
 31
0.0
  0
LINE
  5
2B2
330
238
100
AcDbEntity
  8
标注
370
    -2
100
AcDbLine
 10
111.9481549893411
 20
175.5297412429678
 30
0.0
 11
111.9481549893411
 21
176.1797412429679
 31
0.0
  0
LINE
  5
2B3
330
238
100
AcDbEntity
  8
标注
370
    -2
100
AcDbLine
 10
111.9481549893411
 20
173.2454892744638
 30
0.0
 11
111.9481549893411
 21
172.5954892744639
 31
0.0
  0
LINE
  5
2B4
330
238
100
AcDbEntity
  8
标注
370
    -2
100
AcDbLine
 10
111.9481549893411
 20
174.8797412429679
 30
0.0
 11
111.9481549893411
 21
173.8954892744638
 31
0.0
  0
SOLID
  5
2B5
330
238
100
AcDbEntity
  8
标注
100
AcDbTrace
 10
111.8398216560077
 20
175.5297412429678
 30
0.0
 11
112.0564883226744
 21
175.5297412429678
 31
0.0
 12
111.9481549893411
 22
174.8797412429679
 32
0.0
 13
111.9481549893411
 23
174.8797412429679
 33
0.0
  0
SOLID
  5
2B6
330
238
100
AcDbEntity
  8
标注
100
AcDbTrace
 10
111.8398216560077
 20
173.2454892744638
 30
0.0
 11
112.0564883226744
 21
173.2454892744638
 31
0.0
 12
111.9481549893411
 22
173.8954892744638
 32
0.0
 13
111.9481549893411
 23
173.8954892744638
 33
0.0
  0
MTEXT
  5
2B7
330
238
100
AcDbEntity
  8
标注
100
AcDbMText
 10
111.948154989341
 20
172.0704892744639
 30
0.0
 40
0.65
 41
0.0
 71
     5
 72
     1
  1
\A1;1"
 11
0.0000000000000001
 21
1.0
 31
0.0
 73
     1
 44
1.0
1001
ACAD
1000
MTEXTBEGIN
1070
    73
1070
     1
1070
    44
1040
1.0
1070
    74
1070
     0
1000
MTEXTEND
  0
POINT
  5
2B8
330
238
100
AcDbEntity
  8
Defpoints
 62
     0
100
AcDbPoint
 10
100.5308321546955
 20
174.8797412429679
 30
0.0
  0
POINT
  5
2B9
330
238
100
AcDbEntity
  8
Defpoints
 62
     0
100
AcDbPoint
 10
104.2709896350098
 20
173.8954892744638
 30
0.0
  0
POINT
  5
2BA
330
238
100
AcDbEntity
  8
Defpoints
 62
     0
100
AcDbPoint
 10
111.9481549893411
 20
173.8954892744638
 30
0.0
  0
ENDBLK
  5
245
330
238
100
AcDbEntity
  8
0
100
AcDbBlockEnd
  0
BLOCK
  5
251
330
246
100
AcDbEntity
  8
0
100
AcDbBlockBegin
  2
*D13
 70
     1
 10
0.0
 20
0.0
 30
0.0
  3
*D13
  1

  0
LINE
  5
2CB
330
246
100
AcDbEntity
  8
标注
370
    -2
100
AcDbLine
 10
109.678548690128
 20
213.1980341216324
 30
0.0
 11
112.268154989341
 21
213.1980341216324
 31
0.0
  0
LINE
  5
2CC
330
246
100
AcDbEntity
  8
标注
370
    -2
100
AcDbLine
 10
103.3558728108798
 20
203.1956361861142
 30
0.0
 11
112.2681549893411
 21
203.1956361861142
 31
0.0
  0
LINE
  5
2CD
330
246
100
AcDbEntity
  8
标注
370
    -2
100
AcDbLine
 10
111.948154989341
 20
212.5480341216325
 30
0.0
 11
111.948154989341
 21
208.9926684872069
 31
0.0
  0
LINE
  5
2CE
330
246
100
AcDbEntity
  8
标注
370
    -2
100
AcDbLine
 10
111.948154989341
 20
203.8456361861142
 30
0.0
 11
111.948154989341
 21
207.4010018205402
 31
0.0
  0
SOLID
  5
2CF
330
246
100
AcDbEntity
  8
标注
100
AcDbTrace
 10
111.8398216560077
 20
212.5480341216325
 30
0.0
 11
112.0564883226744
 21
212.5480341216325
 31
0.0
 12
111.948154989341
 22
213.1980341216324
 32
0.0
 13
111.948154989341
 23
213.1980341216324
 33
0.0
  0
SOLID
  5
2D0
330
246
100
AcDbEntity
  8
标注
100
AcDbTrace
 10
111.8398216560077
 20
203.8456361861142
 30
0.0
 11
112.0564883226744
 21
203.8456361861142
 31
0.0
 12
111.948154989341
 22
203.1956361861142
 32
0.0
 13
111.948154989341
 23
203.1956361861142
 33
0.0
  0
MTEXT
  5
2D1
330
246
100
AcDbEntity
  8
标注
100
AcDbMText
 10
111.948154989341
 20
208.1968351538736
 30
0.0
 40
0.65
 41
0.0
 71
     5
 72
     1
  1
\A1;10"
 11
0.0000000000000001
 21
1.0
 31
0.0
 73
     1
 44
1.0
1001
ACAD
1000
MTEXTBEGIN
1070
    73
1070
     1
1070
    44
1040
1.0
1070
    74
1070
     0
1000
MTEXTEND
  0
POINT
  5
2D2
330
246
100
AcDbEntity
  8
Defpoints
 62
     0
100
AcDbPoint
 10
108.798548690128
 20
213.1980341216324
 30
0.0
  0
POINT
  5
2D3
330
246
100
AcDbEntity
  8
Defpoints
 62
     0
100
AcDbPoint
 10
102.4758728108798
 20
203.1956361861142
 30
0.0
  0
POINT
  5
2D4
330
246
100
AcDbEntity
  8
Defpoints
 62
     0
100
AcDbPoint
 10
111.948154989341
 20
203.1956361861142
 30
0.0
  0
ENDBLK
  5
252
330
246
100
AcDbEntity
  8
0
100
AcDbBlockEnd
  0
BLOCK
  5
25E
330
253
100
AcDbEntity
  8
0
100
AcDbBlockBegin
  2
*D14
 70
     1
 10
0.0
 20
0.0
 30
0.0
  3
*D14
  1

  0
LINE
  5
2D5
330
253
100
AcDbEntity
  8
标注
370
    -2
100
AcDbLine
 10
76.51508412319884
 20
177.5430483295824
 30
0.0
 11
76.51508412319884
 21
168.0636782508418
 31
0.0
  0
LINE
  5
2D6
330
253
100
AcDbEntity
  8
标注
370
    -2
100
AcDbLine
 10
108.7985486901279
 20
177.5430483295821
 30
0.0
 11
108.7985486901279
 21
168.0636782508418
 31
0.0
  0
LINE
  5
2D7
330
253
100
AcDbEntity
  8
标注
370
    -2
100
AcDbLine
 10
77.16508412319884
 20
168.3836782508418
 30
0.0
 11
90.50681640666388
 21
168.3836782508418
 31
0.0
  0
LINE
  5
2D8
330
253
100
AcDbEntity
  8
标注
370
    -2
100
AcDbLine
 10
108.1485486901279
 20
168.3836782508418
 30
0.0
 11
94.80681640666388
 21
168.3836782508418
 31
0.0
  0
SOLID
  5
2D9
330
253
100
AcDbEntity
  8
标注
100
AcDbTrace
 10
77.16508412319884
 20
168.4920115841751
 30
0.0
 11
77.16508412319884
 21
168.2753449175085
 31
0.0
 12
76.51508412319884
 22
168.3836782508418
 32
0.0
 13
76.51508412319884
 23
168.3836782508418
 33
0.0
  0
SOLID
  5
2DA
330
253
100
AcDbEntity
  8
标注
100
AcDbTrace
 10
108.1485486901279
 20
168.4920115841751
 30
0.0
 11
108.1485486901279
 21
168.2753449175085
 31
0.0
 12
108.7985486901279
 22
168.3836782508418
 32
0.0
 13
108.7985486901279
 23
168.3836782508418
 33
0.0
  0
MTEXT
  5
2DB
330
253
100
AcDbEntity
  8
标注
100
AcDbMText
 10
92.65681640666388
 20
168.3836782508418
 30
0.0
 40
0.65
 41
0.0
 71
     5
 72
     1
  1
\A1;32 1/4"
 73
     1
 44
1.0
1001
ACAD
1000
MTEXTBEGIN
1070
    73
1070
     1
1070
    44
1040
1.0
1070
    74
1070
     0
1000
MTEXTEND
  0
POINT
  5
2DC
330
253
100
AcDbEntity
  8
Defpoints
 62
     0
100
AcDbPoint
 10
76.51508412319884
 20
178.4230483295824
 30
0.0
  0
POINT
  5
2DD
330
253
100
AcDbEntity
  8
Defpoints
 62
     0
100
AcDbPoint
 10
108.7985486901279
 20
178.423048329582
 30
0.0
  0
POINT
  5
2DE
330
253
100
AcDbEntity
  8
Defpoints
 62
     0
100
AcDbPoint
 10
108.7985486901279
 20
168.3836782508418
 30
0.0
  0
ENDBLK
  5
25F
330
253
100
AcDbEntity
  8
0
100
AcDbBlockEnd
  0
BLOCK
  5
26B
330
260
100
AcDbEntity
  8
0
100
AcDbBlockBegin
  2
*D15
 70
     1
 10
0.0
 20
0.0
 30
0.0
  3
*D15
  1

  0
LINE
  5
2DF
330
260
100
AcDbEntity
  8
标注
370
    -2
100
AcDbLine
 10
93.24736758776571
 20
182.2674577783999
 30
0.0
 11
93.24736758776571
 21
170.4258829752513
 31
0.0
  0
LINE
  5
2E0
330
260
100
AcDbEntity
  8
标注
370
    -2
100
AcDbLine
 10
107.8142967216241
 20
182.2674577784
 30
0.0
 11
107.8142967216241
 21
170.4258829752513
 31
0.0
  0
LINE
  5
2E1
330
260
100
AcDbEntity
  8
标注
370
    -2
100
AcDbLine
 10
93.89736758776571
 20
170.7458829752513
 30
0.0
 11
98.38083215469481
 21
170.7458829752513
 31
0.0
  0
LINE
  5
2E2
330
260
100
AcDbEntity
  8
标注
370
    -2
100
AcDbLine
 10
107.1642967216241
 20
170.7458829752513
 30
0.0
 11
102.6808321546948
 21
170.7458829752513
 31
0.0
  0
SOLID
  5
2E3
330
260
100
AcDbEntity
  8
标注
100
AcDbTrace
 10
93.89736758776571
 20
170.8542163085847
 30
0.0
 11
93.89736758776571
 21
170.637549641918
 31
0.0
 12
93.24736758776571
 22
170.7458829752513
 32
0.0
 13
93.24736758776571
 23
170.7458829752513
 33
0.0
  0
SOLID
  5
2E4
330
260
100
AcDbEntity
  8
标注
100
AcDbTrace
 10
107.1642967216241
 20
170.8542163085847
 30
0.0
 11
107.1642967216241
 21
170.637549641918
 31
0.0
 12
107.8142967216241
 22
170.7458829752513
 32
0.0
 13
107.8142967216241
 23
170.7458829752513
 33
0.0
  0
MTEXT
  5
2E5
330
260
100
AcDbEntity
  8
标注
100
AcDbMText
 10
100.5308321546948
 20
170.7458829752513
 30
0.0
 40
0.65
 41
0.0
 71
     5
 72
     1
  1
\A1;14 5/8"
 73
     1
 44
1.0
1001
ACAD
1000
MTEXTBEGIN
1070
    73
1070
     1
1070
    44
1040
1.0
1070
    74
1070
     0
1000
MTEXTEND
  0
POINT
  5
2E6
330
260
100
AcDbEntity
  8
Defpoints
 62
     0
100
AcDbPoint
 10
93.24736758776571
 20
183.1474577784
 30
0.0
  0
POINT
  5
2E7
330
260
100
AcDbEntity
  8
Defpoints
 62
     0
100
AcDbPoint
 10
107.8142967216241
 20
183.1474577784
 30
0.0
  0
POINT
  5
2E8
330
260
100
AcDbEntity
  8
Defpoints
 62
     0
100
AcDbPoint
 10
107.8142967216241
 20
170.7458829752513
 30
0.0
  0
ENDBLK
  5
26C
330
260
100
AcDbEntity
  8
0
100
AcDbBlockEnd
  0
BLOCK
  5
278
330
26D
100
AcDbEntity
  8
0
100
AcDbBlockBegin
  2
*D16
 70
     1
 10
0.0
 20
0.0
 30
0.0
  3
*D16
  1

  0
LINE
  5
2E9
330
26D
100
AcDbEntity
  8
标注
370
    -2
100
AcDbLine
 10
77.49933609170274
 20
182.2674577784006
 30
0.0
 11
77.49933609170274
 21
170.4258829752513
 31
0.0
  0
LINE
  5
2EA
330
26D
100
AcDbEntity
  8
标注
370
    -2
100
AcDbLine
 10
92.06626522556105
 20
182.2674577784009
 30
0.0
 11
92.06626522556105
 21
170.4258829752513
 31
0.0
  0
LINE
  5
2EB
330
26D
100
AcDbEntity
  8
标注
370
    -2
100
AcDbLine
 10
78.14933609170274
 20
170.7458829752513
 30
0.0
 11
82.63280065863188
 21
170.7458829752513
 31
0.0
  0
LINE
  5
2EC
330
26D
100
AcDbEntity
  8
标注
370
    -2
100
AcDbLine
 10
91.41626522556105
 20
170.7458829752513
 30
0.0
 11
86.9328006586319
 21
170.7458829752513
 31
0.0
  0
SOLID
  5
2ED
330
26D
100
AcDbEntity
  8
标注
100
AcDbTrace
 10
78.14933609170274
 20
170.8542163085847
 30
0.0
 11
78.14933609170274
 21
170.637549641918
 31
0.0
 12
77.49933609170274
 22
170.7458829752513
 32
0.0
 13
77.49933609170274
 23
170.7458829752513
 33
0.0
  0
SOLID
  5
2EE
330
26D
100
AcDbEntity
  8
标注
100
AcDbTrace
 10
91.41626522556105
 20
170.8542163085847
 30
0.0
 11
91.41626522556105
 21
170.637549641918
 31
0.0
 12
92.06626522556105
 22
170.7458829752513
 32
0.0
 13
92.06626522556105
 23
170.7458829752513
 33
0.0
  0
MTEXT
  5
2EF
330
26D
100
AcDbEntity
  8
标注
100
AcDbMText
 10
84.78280065863188
 20
170.7458829752513
 30
0.0
 40
0.65
 41
0.0
 71
     5
 72
     1
  1
\A1;14 5/8"
 73
     1
 44
1.0
1001
ACAD
1000
MTEXTBEGIN
1070
    73
1070
     1
1070
    44
1040
1.0
1070
    74
1070
     0
1000
MTEXTEND
  0
POINT
  5
2F0
330
26D
100
AcDbEntity
  8
Defpoints
 62
     0
100
AcDbPoint
 10
77.49933609170274
 20
183.1474577784006
 30
0.0
  0
POINT
  5
2F1
330
26D
100
AcDbEntity
  8
Defpoints
 62
     0
100
AcDbPoint
 10
92.06626522556105
 20
183.1474577784009
 30
0.0
  0
POINT
  5
2F2
330
26D
100
AcDbEntity
  8
Defpoints
 62
     0
100
AcDbPoint
 10
92.06626522556105
 20
170.7458829752513
 30
0.0
  0
ENDBLK
  5
279
330
26D
100
AcDbEntity
  8
0
100
AcDbBlockEnd
  0
BLOCK
  5
285
330
27A
100
AcDbEntity
  8
0
100
AcDbBlockBegin
  2
*D17
 70
     1
 10
0.0
 20
0.0
 30
0.0
  3
*D17
  1

  0
LINE
  5
2F3
330
27A
100
AcDbEntity
  8
标注
370
    -2
100
AcDbLine
 10
101.4108321546948
 20
191.4151743138339
 30
0.0
 11
112.2681549893411
 21
191.4151743138339
 31
0.0
  0
LINE
  5
2F4
330
27A
100
AcDbEntity
  8
标注
370
    -2
100
AcDbLine
 10
101.4108321546955
 20
174.8797412429679
 30
0.0
 11
112.2681549893411
 21
174.8797412429679
 31
0.0
  0
LINE
  5
2F5
330
27A
100
AcDbEntity
  8
标注
370
    -2
100
AcDbLine
 10
111.948154989341
 20
190.7651743138339
 30
0.0
 11
111.948154989341
 21
185.1891244450676
 31
0.0
  0
LINE
  5
2F6
330
27A
100
AcDbEntity
  8
标注
370
    -2
100
AcDbLine
 10
111.948154989341
 20
175.5297412429678
 30
0.0
 11
111.948154989341
 21
181.1057911117343
 31
0.0
  0
SOLID
  5
2F7
330
27A
100
AcDbEntity
  8
标注
100
AcDbTrace
 10
111.8398216560077
 20
190.7651743138339
 30
0.0
 11
112.0564883226744
 21
190.7651743138339
 31
0.0
 12
111.948154989341
 22
191.4151743138339
 32
0.0
 13
111.948154989341
 23
191.4151743138339
 33
0.0
  0
SOLID
  5
2F8
330
27A
100
AcDbEntity
  8
标注
100
AcDbTrace
 10
111.8398216560077
 20
175.5297412429678
 30
0.0
 11
112.0564883226744
 21
175.5297412429678
 31
0.0
 12
111.948154989341
 22
174.8797412429679
 32
0.0
 13
111.948154989341
 23
174.8797412429679
 33
0.0
  0
MTEXT
  5
2F9
330
27A
100
AcDbEntity
  8
标注
100
AcDbMText
 10
111.948154989341
 20
183.1474577784009
 30
0.0
 40
0.65
 41
0.0
 71
     5
 72
     1
  1
\A1;16 1/2"
 11
0.0000000000000001
 21
1.0
 31
0.0
 73
     1
 44
1.0
1001
ACAD
1000
MTEXTBEGIN
1070
    73
1070
     1
1070
    44
1040
1.0
1070
    74
1070
     0
1000
MTEXTEND
  0
POINT
  5
2FA
330
27A
100
AcDbEntity
  8
Defpoints
 62
     0
100
AcDbPoint
 10
100.5308321546948
 20
191.4151743138339
 30
0.0
  0
POINT
  5
2FB
330
27A
100
AcDbEntity
  8
Defpoints
 62
     0
100
AcDbPoint
 10
100.5308321546955
 20
174.8797412429679
 30
0.0
  0
POINT
  5
2FC
330
27A
100
AcDbEntity
  8
Defpoints
 62
     0
100
AcDbPoint
 10
111.948154989341
 20
174.8797412429679
 30
0.0
  0
ENDBLK
  5
286
330
27A
100
AcDbEntity
  8
0
100
AcDbBlockEnd
  0
BLOCK
  5
292
330
287
100
AcDbEntity
  8
0
100
AcDbBlockBegin
  2
*D18
 70
     1
 10
0.0
 20
0.0
 30
0.0
  3
*D18
  1

  0
LINE
  5
2FD
330
287
100
AcDbEntity
  8
标注
370
    -2
100
AcDbLine
 10
105.1509896350098
 20
192.3994262823379
 30
0.0
 11
114.6303597137506
 21
192.3994262823379
 31
0.0
  0
LINE
  5
2FE
330
287
100
AcDbEntity
  8
标注
370
    -2
100
AcDbLine
 10
105.1509896350098
 20
173.8954892744638
 30
0.0
 11
114.6303597137506
 21
173.8954892744638
 31
0.0
  0
LINE
  5
2FF
330
287
100
AcDbEntity
  8
标注
370
    -2
100
AcDbLine
 10
114.3103597137506
 20
191.7494262823379
 30
0.0
 11
114.3103597137506
 21
185.5999813253538
 31
0.0
  0
LINE
  5
300
330
287
100
AcDbEntity
  8
标注
370
    -2
100
AcDbLine
 10
114.3103597137506
 20
174.5454892744638
 30
0.0
 11
114.3103597137506
 21
181.5166479920204
 31
0.0
  0
SOLID
  5
301
330
287
100
AcDbEntity
  8
标注
100
AcDbTrace
 10
114.2020263804172
 20
191.7494262823379
 30
0.0
 11
114.4186930470839
 21
191.7494262823379
 31
0.0
 12
114.3103597137506
 22
192.3994262823379
 32
0.0
 13
114.3103597137506
 23
192.3994262823379
 33
0.0
  0
SOLID
  5
302
330
287
100
AcDbEntity
  8
标注
100
AcDbTrace
 10
114.2020263804172
 20
174.5454892744638
 30
0.0
 11
114.4186930470839
 21
174.5454892744638
 31
0.0
 12
114.3103597137506
 22
173.8954892744638
 32
0.0
 13
114.3103597137506
 23
173.8954892744638
 33
0.0
  0
MTEXT
  5
303
330
287
100
AcDbEntity
  8
标注
100
AcDbMText
 10
114.3103597137506
 20
183.5583146586871
 30
0.0
 40
0.65
 41
0.0
 71
     5
 72
     1
  1
\A1;18 1/2"
 11
0.0000000000000001
 21
1.0
 31
0.0
 73
     1
 44
1.0
1001
ACAD
1000
MTEXTBEGIN
1070
    73
1070
     1
1070
    44
1040
1.0
1070
    74
1070
     0
1000
MTEXTEND
  0
POINT
  5
304
330
287
100
AcDbEntity
  8
Defpoints
 62
     0
100
AcDbPoint
 10
104.2709896350098
 20
192.3994262823379
 30
0.0
  0
POINT
  5
305
330
287
100
AcDbEntity
  8
Defpoints
 62
     0
100
AcDbPoint
 10
104.2709896350098
 20
173.8954892744638
 30
0.0
  0
POINT
  5
306
330
287
100
AcDbEntity
  8
Defpoints
 62
     0
100
AcDbPoint
 10
114.3103597137506
 20
173.8954892744638
 30
0.0
  0
ENDBLK
  5
293
330
287
100
AcDbEntity
  8
0
100
AcDbBlockEnd
  0
BLOCK
  5
2A0
330
294
100
AcDbEntity
  8
0
100
AcDbBlockBegin
  2
*D19
 70
     1
 10
0.0
 20
0.0
 30
0.0
  3
*D19
  1

  0
LINE
  5
295
330
294
100
AcDbEntity
  8
标注
370
    -2
100
AcDbLine
 10
92.06626522556105
 20
184.0274577784009
 30
0.0
 11
92.06626522556105
 21
183.4674577784009
 31
0.0
  0
LINE
  5
296
330
294
100
AcDbEntity
  8
标注
370
    -2
100
AcDbLine
 10
93.24736758776571
 20
184.0274577784009
 30
0.0
 11
93.24736758776571
 21
183.4674577784009
 31
0.0
  0
LINE
  5
297
330
294
100
AcDbEntity
  8
标注
370
    -2
100
AcDbLine
 10
91.41626522556105
 20
183.1474577784009
 30
0.0
 11
90.76626522556104
 21
183.1474577784009
 31
0.0
  0
LINE
  5
298
330
294
100
AcDbEntity
  8
标注
370
    -2
100
AcDbLine
 10
93.89736758776571
 20
183.1474577784009
 30
0.0
 11
94.54736758776569
 21
183.1474577784009
 31
0.0
  0
LINE
  5
299
330
294
100
AcDbEntity
  8
标注
370
    -2
100
AcDbLine
 10
92.06626522556105
 20
183.1474577784009
 30
0.0
 11
93.24736758776571
 21
183.1474577784009
 31
0.0
  0
SOLID
  5
29A
330
294
100
AcDbEntity
  8
标注
100
AcDbTrace
 10
91.41626522556105
 20
183.2557911117343
 30
0.0
 11
91.41626522556105
 21
183.0391244450676
 31
0.0
 12
92.06626522556105
 22
183.1474577784009
 32
0.0
 13
92.06626522556105
 23
183.1474577784009
 33
0.0
  0
SOLID
  5
29B
330
294
100
AcDbEntity
  8
标注
100
AcDbTrace
 10
93.89736758776571
 20
183.2557911117343
 30
0.0
 11
93.89736758776571
 21
183.0391244450676
 31
0.0
 12
93.24736758776571
 22
183.1474577784009
 32
0.0
 13
93.24736758776571
 23
183.1474577784009
 33
0.0
  0
MTEXT
  5
29C
330
294
100
AcDbEntity
  8
标注
100
AcDbMText
 10
96.26403425443243
 20
183.1474577784009
 30
0.0
 40
0.65
 41
0.0
 71
     5
 72
     1
  1
\A1;1 1/8"
 73
     1
 44
1.0
1001
ACAD
1000
MTEXTBEGIN
1070
    73
1070
     1
1070
    44
1040
1.0
1070
    74
1070
     0
1000
MTEXTEND
  0
POINT
  5
29D
330
294
100
AcDbEntity
  8
Defpoints
 62
     0
100
AcDbPoint
 10
92.06626522556105
 20
183.1474577784009
 30
0.0
  0
POINT
  5
29E
330
294
100
AcDbEntity
  8
Defpoints
 62
     0
100
AcDbPoint
 10
93.24736758776571
 20
183.1474577784009
 30
0.0
  0
POINT
  5
29F
330
294
100
AcDbEntity
  8
Defpoints
 62
     0
100
AcDbPoint
 10
93.24736758776571
 20
183.1474577784009
 30
0.0
  0
ENDBLK
  5
2A1
330
294
100
AcDbEntity
  8
0
100
AcDbBlockEnd
  0
BLOCK
  5
2AE
330
2A2
100
AcDbEntity
  8
0
100
AcDbBlockBegin
  2
*D20
 70
     1
 10
0.0
 20
0.0
 30
0.0
  3
*D20
  1

  0
LINE
  5
2A3
330
2A2
100
AcDbEntity
  8
标注
370
    -2
100
AcDbLine
 10
107.8142967216241
 20
181.3874577784
 30
0.0
 11
107.8142967216241
 21
170.4258829752513
 31
0.0
  0
LINE
  5
2A4
330
2A2
100
AcDbEntity
  8
标注
370
    -2
100
AcDbLine
 10
108.798548690128
 20
177.5430483295821
 30
0.0
 11
108.798548690128
 21
170.4258829752513
 31
0.0
  0
LINE
  5
2A5
330
2A2
100
AcDbEntity
  8
标注
370
    -2
100
AcDbLine
 10
107.1642967216241
 20
170.7458829752513
 30
0.0
 11
106.5142967216241
 21
170.7458829752513
 31
0.0
  0
LINE
  5
2A6
330
2A2
100
AcDbEntity
  8
标注
370
    -2
100
AcDbLine
 10
109.448548690128
 20
170.7458829752513
 30
0.0
 11
110.098548690128
 21
170.7458829752513
 31
0.0
  0
LINE
  5
2A7
330
2A2
100
AcDbEntity
  8
标注
370
    -2
100
AcDbLine
 10
107.8142967216241
 20
170.7458829752513
 30
0.0
 11
108.798548690128
 21
170.7458829752513
 31
0.0
  0
SOLID
  5
2A8
330
2A2
100
AcDbEntity
  8
标注
100
AcDbTrace
 10
107.1642967216241
 20
170.8542163085847
 30
0.0
 11
107.1642967216241
 21
170.637549641918
 31
0.0
 12
107.8142967216241
 22
170.7458829752513
 32
0.0
 13
107.8142967216241
 23
170.7458829752513
 33
0.0
  0
SOLID
  5
2A9
330
2A2
100
AcDbEntity
  8
标注
100
AcDbTrace
 10
109.448548690128
 20
170.8542163085847
 30
0.0
 11
109.448548690128
 21
170.637549641918
 31
0.0
 12
108.798548690128
 22
170.7458829752513
 32
0.0
 13
108.798548690128
 23
170.7458829752513
 33
0.0
  0
MTEXT
  5
2AA
330
2A2
100
AcDbEntity
  8
标注
100
AcDbMText
 10
110.623548690128
 20
170.7458829752513
 30
0.0
 40
0.65
 41
0.0
 71
     5
 72
     1
  1
\A1;1"
 73
     1
 44
1.0
1001
ACAD
1000
MTEXTBEGIN
1070
    73
1070
     1
1070
    44
1040
1.0
1070
    74
1070
     0
1000
MTEXTEND
  0
POINT
  5
2AB
330
2A2
100
AcDbEntity
  8
Defpoints
 62
     0
100
AcDbPoint
 10
107.8142967216241
 20
182.2674577784
 30
0.0
  0
POINT
  5
2AC
330
2A2
100
AcDbEntity
  8
Defpoints
 62
     0
100
AcDbPoint
 10
108.798548690128
 20
178.423048329582
 30
0.0
  0
POINT
  5
2AD
330
2A2
100
AcDbEntity
  8
Defpoints
 62
     0
100
AcDbPoint
 10
108.798548690128
 20
170.7458829752513
 30
0.0
  0
ENDBLK
  5
2AF
330
2A2
100
AcDbEntity
  8
0
100
AcDbBlockEnd
  0
BLOCK
  5
2C1
330
2BB
100
AcDbEntity
  8
0
100
AcDbBlockBegin
  2
*D21
 70
     1
 10
0.0
 20
0.0
 30
0.0
  3
*D21
  1

  0
LINE
  5
307
330
2BB
100
AcDbEntity
  8
标注
370
    -2
100
AcDbLine
 10
79.97533000741835
 20
176.7091995133775
 30
0.0
 11
79.61123948177145
 21
176.170740518528
 31
0.0
  0
MTEXT
  5
308
330
2BB
100
AcDbEntity
  8
标注
100
AcDbMText
 10
81.17962943840403
 20
178.4902561886486
 30
0.0
 40
0.65
 41
0.0
 71
     5
 72
     1
  1
\A1;R3 1/2"
 11
0.5601392702258894
 21
0.8283984536144476
 31
0.0
 73
     1
 44
1.0
1001
ACAD
1000
MTEXTBEGIN
1070
    73
1070
     1
1070
    44
1040
1.0
1070
    74
1070
     0
1000
MTEXTEND
  0
SOLID
  5
309
330
2BB
100
AcDbEntity
  8
标注
100
AcDbTrace
 10
79.52149631596322
 20
176.2314222728025
 30
0.0
 11
79.70098264757969
 21
176.1100587642535
 31
0.0
 12
79.24714895612462
 22
175.6322815236786
 32
0.0
 13
79.24714895612462
 23
175.6322815236786
 33
0.0
  0
POINT
  5
30A
330
2BB
100
AcDbEntity
  8
Defpoints
 62
     0
100
AcDbPoint
 10
79.24714895612462
 20
175.6322815236786
 30
0.0
  0
POINT
  5
30B
330
2BB
100
AcDbEntity
  8
Defpoints
 62
     0
100
AcDbPoint
 10
81.23189440180686
 20
178.5675516349108
 30
0.0
  0
ENDBLK
  5
2C2
330
2BB
100
AcDbEntity
  8
0
100
AcDbBlockEnd
  0
BLOCK
  5
2C9
330
2C3
100
AcDbEntity
  8
0
100
AcDbBlockBegin
  2
*D22
 70
     1
 10
0.0
 20
0.0
 30
0.0
  3
*D22
  1

  0
LINE
  5
30C
330
2C3
100
AcDbEntity
  8
标注
370
    -2
100
AcDbLine
 10
79.09980661307926
 20
204.8023226617809
 30
0.0
 11
78.62372052728995
 21
204.3597822241734
 31
0.0
  0
MTEXT
  5
30D
330
2C3
100
AcDbEntity
  8
标注
100
AcDbMText
 10
80.67455289684394
 20
206.2661102630979
 30
0.0
 40
0.65
 41
0.0
 71
     5
 72
     1
  1
\A1;R1 3/8"
 11
0.732440131983573
 21
0.6808314424730152
 31
0.0
 73
     1
 44
1.0
1001
ACAD
1000
MTEXTBEGIN
1070
    73
1070
     1
1070
    44
1040
1.0
1070
    74
1070
     0
1000
MTEXTEND
  0
SOLID
  5
30E
330
2C3
100
AcDbEntity
  8
标注
100
AcDbTrace
 10
78.5499637876887
 20
204.4391299051383
 30
0.0
 11
78.69747726689118
 21
204.2804345432085
 31
0.0
 12
78.14763444150063
 22
203.917241786566
 32
0.0
 13
78.14763444150063
 23
203.917241786566
 33
0.0
  0
POINT
  5
30F
330
2C3
100
AcDbEntity
  8
Defpoints
 62
     0
100
AcDbPoint
 10
78.14763444150063
 20
203.917241786566
 30
0.0
  0
POINT
  5
310
330
2C3
100
AcDbEntity
  8
Defpoints
 62
     0
100
AcDbPoint
 10
79.15690233990251
 20
204.8553953490282
 30
0.0
  0
ENDBLK
  5
2CA
330
2C3
100
AcDbEntity
  8
0
100
AcDbBlockEnd
  0
ENDSEC
  0
SECTION
  2
ENTITIES
  0
LINE
  5
17F
330
21
100
AcDbEntity
  8
虚线
 62
    11
 48
0.15
100
AcDbLine
 10
84.78280065863186
 20
55.3892589321973
 30
0.0
 11
100.5308321546949
 21
55.38925893219761
 31
0.0
  0
ARC
  5
180
330
21
100
AcDbEntity
  8
虚线
 62
    11
 48
0.15
100
AcDbCircle
 10
100.5308321546949
 20
8.395164444008287
 30
0.0
 40
46.99409448818896
100
AcDbArc
 50
85.33929479604744
 51
90.0
  0
ARC
  5
181
330
21
100
AcDbEntity
  8
虚线
 62
    11
 48
0.15
100
AcDbCircle
 10
104.0817384115194
 20
51.95144854025429
 30
0.0
 40
3.293307086614173
100
AcDbArc
 50
4.732468594979057
 51
85.33929479604744
  0
ARC
  5
182
330
21
100
AcDbEntity
  8
虚线
 62
    11
 48
0.15
100
AcDbCircle
 10
48.75917861138799
 20
47.37154239676423
 30
0.0
 40
58.80511811023621
100
AcDbArc
 50
355.2675314050209
 51
4.732468594979089
  0
ARC
  5
183
330
21
100
AcDbEntity
  8
虚线
 62
    11
 48
0.15
100
AcDbCircle
 10
104.0817384115194
 20
42.79163625327411
 30
0.0
 40
3.293307086614173
100
AcDbArc
 50
274.6607052039526
 51
355.267531405021
  0
ARC
  5
184
330
21
100
AcDbEntity
  8
虚线
 62
    11
 48
0.15
100
AcDbCircle
 10
100.5308321546949
 20
86.34792034952011
 30
0.0
 40
46.99409448818896
100
AcDbArc
 50
270.0
 51
274.6607052039526
  0
LINE
  5
185
330
21
100
AcDbEntity
  8
虚线
 62
    11
 48
0.15
100
AcDbLine
 10
84.78280065863208
 20
39.35382586133113
 30
0.0
 11
100.5308321546952
 21
39.35382586133144
 31
0.0
  0
ARC
  5
186
330
21
100
AcDbEntity
  8
虚线
 62
    11
 48
0.15
100
AcDbCircle
 10
84.78280065863208
 20
86.34792034952011
 30
0.0
 40
46.99409448818896
100
AcDbArc
 50
265.3392947960475
 51
270.0
  0
ARC
  5
187
330
21
100
AcDbEntity
  8
虚线
 62
    11
 48
0.15
100
AcDbCircle
 10
81.23189440180698
 20
42.79163625327411
 30
0.0
 40
3.293307086614173
100
AcDbArc
 50
184.7324685949758
 51
265.3392947960507
  0
ARC
  5
188
330
21
100
AcDbEntity
  8
虚线
 62
    11
 48
0.15
100
AcDbCircle
 10
136.554454201939
 20
47.37154239676423
 30
0.0
 40
58.80511811023621
100
AcDbArc
 50
175.2675314050209
 51
184.7324685949791
  0
ARC
  5
189
330
21
100
AcDbEntity
  8
虚线
 62
    11
 48
0.15
100
AcDbCircle
 10
81.23189440180698
 20
51.95144854025429
 30
0.0
 40
3.293307086614173
100
AcDbArc
 50
94.66070520394934
 51
175.2675314050209
  0
ARC
  5
18A
330
21
100
AcDbEntity
  8
虚线
 62
    11
 48
0.15
100
AcDbCircle
 10
84.78280065863208
 20
8.395164444008287
 30
0.0
 40
46.99409448818896
100
AcDbArc
 50
90.0
 51
94.66070520395255
  0
LINE
  5
18B
330
21
100
AcDbEntity
  8
截面层
 62
     1
 48
0.2
370
     9
100
AcDbLine
 10
100.5308321546948
 20
84.96016838124138
 30
0.0
 11
84.78280065863197
 21
84.96016838124138
 31
0.0
  0
ARC
  5
18C
330
21
100
AcDbEntity
  8
截面层
 62
     1
 48
0.2
370
     9
100
AcDbCircle
 10
100.5308321546951
 20
37.7160738930524
 30
0.0
 40
47.24409448818897
100
AcDbArc
 50
85.33929479604744
 51
90.0
  0
ARC
  5
18D
330
21
100
AcDbEntity
  8
截面层
 62
     1
 48
0.2
370
     9
100
AcDbCircle
 10
104.0817384115195
 20
81.27235798929836
 30
0.0
 40
3.543307086614173
100
AcDbArc
 50
4.732468594979057
 51
85.33929479604744
  0
ARC
  5
18E
330
21
100
AcDbEntity
  8
截面层
 62
     1
 48
0.2
370
     9
100
AcDbCircle
 10
48.7591786113882
 20
76.69245184580829
 30
0.0
 40
59.05511811023622
100
AcDbArc
 50
355.2675314050209
 51
4.732468594979089
  0
ARC
  5
18F
330
21
100
AcDbEntity
  8
截面层
 62
     1
 48
0.2
370
     9
100
AcDbCircle
 10
104.0817384115195
 20
72.11254570231822
 30
0.0
 40
3.543307086614173
100
AcDbArc
 50
274.6607052039526
 51
355.267531405021
  0
ARC
  5
190
330
21
100
AcDbEntity
  8
截面层
 62
     1
 48
0.2
370
     9
100
AcDbCircle
 10
100.5308321546951
 20
115.6688297985642
 30
0.0
 40
47.24409448818897
100
AcDbArc
 50
270.0
 51
274.6607052039526
  0
LINE
  5
191
330
21
100
AcDbEntity
  8
截面层
 62
     1
 48
0.2
370
     9
100
AcDbLine
 10
100.5308321546953
 20
68.42473531037521
 30
0.0
 11
84.78280065863193
 21
68.42473531037521
 31
0.0
  0
ARC
  5
192
330
21
100
AcDbEntity
  8
截面层
 62
     1
 48
0.2
370
     9
100
AcDbCircle
 10
84.7828006586322
 20
115.6688297985642
 30
0.0
 40
47.24409448818897
100
AcDbArc
 50
265.3392947960475
 51
270.0
  0
ARC
  5
193
330
21
100
AcDbEntity
  8
截面层
 62
     1
 48
0.2
370
     9
100
AcDbCircle
 10
81.23189440180709
 20
72.11254570231822
 30
0.0
 40
3.543307086614173
100
AcDbArc
 50
184.7324685949758
 51
265.3392947960507
  0
ARC
  5
194
330
21
100
AcDbEntity
  8
截面层
 62
     1
 48
0.2
370
     9
100
AcDbCircle
 10
136.5544542019391
 20
76.69245184580829
 30
0.0
 40
59.05511811023622
100
AcDbArc
 50
175.2675314050209
 51
184.7324685949791
  0
ARC
  5
195
330
21
100
AcDbEntity
  8
截面层
 62
     1
 48
0.2
370
     9
100
AcDbCircle
 10
81.23189440180709
 20
81.27235798929836
 30
0.0
 40
3.543307086614173
100
AcDbArc
 50
94.66070520394934
 51
175.2675314050209
  0
ARC
  5
196
330
21
100
AcDbEntity
  8
截面层
 62
     1
 48
0.2
370
     9
100
AcDbCircle
 10
84.7828006586322
 20
37.7160738930524
 30
0.0
 40
47.24409448818897
100
AcDbArc
 50
90.0
 51
94.66070520395255
  0
ARC
  5
197
330
21
100
AcDbEntity
  8
虚线
 62
     3
 48
0.3
370
     9
100
AcDbCircle
 10
136.5544542019389
 20
107.1189805349924
 30
0.0
 40
59.30511811023621
100
AcDbArc
 50
175.2675314050209
 51
184.7324685949791
  0
ARC
  5
198
330
21
100
AcDbEntity
  8
虚线
 62
     3
 48
0.3
370
     9
100
AcDbCircle
 10
81.23189440180681
 20
102.5390743915023
 30
0.0
 40
3.793307086614173
100
AcDbArc
 50
184.7324685949758
 51
265.3392947960507
  0
ARC
  5
199
330
21
100
AcDbEntity
  8
虚线
 62
     3
 48
0.3
370
     9
100
AcDbCircle
 10
84.78280065863197
 20
146.0953584877483
 30
0.0
 40
47.49409448818897
100
AcDbArc
 50
265.3392947960475
 51
270.0
  0
LINE
  5
19A
330
21
100
AcDbEntity
  8
虚线
 62
     3
 48
0.3
370
     9
100
AcDbLine
 10
84.78280065863197
 20
98.60126399955937
 30
0.0
 11
100.5308321546951
 21
98.60126399955969
 31
0.0
  0
ARC
  5
19B
330
21
100
AcDbEntity
  8
虚线
 62
     3
 48
0.3
370
     9
100
AcDbCircle
 10
100.5308321546948
 20
146.0953584877483
 30
0.0
 40
47.49409448818897
100
AcDbArc
 50
270.0
 51
274.6607052039526
  0
ARC
  5
19C
330
21
100
AcDbEntity
  8
虚线
 62
     3
 48
0.3
370
     9
100
AcDbCircle
 10
104.0817384115192
 20
102.5390743915023
 30
0.0
 40
3.793307086614173
100
AcDbArc
 50
274.6607052039526
 51
355.267531405021
  0
ARC
  5
19D
330
21
100
AcDbEntity
  8
虚线
 62
     3
 48
0.3
370
     9
100
AcDbCircle
 10
48.7591786113878
 20
107.1189805349924
 30
0.0
 40
59.30511811023621
100
AcDbArc
 50
355.2675314050209
 51
4.732468594979089
  0
ARC
  5
19E
330
21
100
AcDbEntity
  8
虚线
 62
     3
 48
0.3
370
     9
100
AcDbCircle
 10
104.0817384115192
 20
111.6988866784825
 30
0.0
 40
3.793307086614173
100
AcDbArc
 50
4.732468594979057
 51
85.33929479604744
  0
ARC
  5
19F
330
21
100
AcDbEntity
  8
虚线
 62
     3
 48
0.3
370
     9
100
AcDbCircle
 10
100.5308321546948
 20
68.14260258223653
 30
0.0
 40
47.49409448818897
100
AcDbArc
 50
85.33929479604744
 51
90.0
  0
LINE
  5
1A0
330
21
100
AcDbEntity
  8
虚线
 62
     3
 48
0.3
370
     9
100
AcDbLine
 10
84.78280065863161
 20
115.6366970704255
 30
0.0
 11
100.5308321546948
 21
115.6366970704255
 31
0.0
  0
ARC
  5
1A1
330
21
100
AcDbEntity
  8
虚线
 62
     3
 48
0.3
370
     9
100
AcDbCircle
 10
84.78280065863197
 20
68.14260258223653
 30
0.0
 40
47.49409448818897
100
AcDbArc
 50
90.0
 51
94.66070520395255
  0
ARC
  5
1A2
330
21
100
AcDbEntity
  8
虚线
 62
     3
 48
0.3
370
     9
100
AcDbCircle
 10
81.23189440180681
 20
111.6988866784825
 30
0.0
 40
3.793307086614173
100
AcDbArc
 50
94.66070520394934
 51
175.2675314050209
  0
MTEXT
  5
1A3
330
21
100
AcDbEntity
  8
标注
 48
5.0
100
AcDbMText
 10
84.12309881424983
 20
36.6925982539203
 30
0.0
 40
0.7874015748031497
 41
15.1555422233215
 71
     1
 72
     5
  1
1/4" {\fArial|b0|i0|c0|p32;OVERHANG CUTOUT}
 73
     1
 44
1.0
1001
ACAD
1000
MTEXTBEGIN
1070
    73
1070
     1
1070
    44
1040
1.0
1070
    74
1070
     0
1000
MTEXTEND
  0
MTEXT
  5
1A4
330
21
100
AcDbEntity
  8
标注
 48
5.0
100
AcDbMText
 10
87.86409438967963
 20
66.39223750744148
 30
0.0
 40
0.7874015748031497
 41
15.1555422233215
 71
     1
 72
     5
  1
{\fArial|b0|i0|c0|p32;FLUSH CUTOUT}
 73
     1
 44
1.0
1001
ACAD
1000
MTEXTBEGIN
1070
    73
1070
     1
1070
    44
1040
1.0
1070
    74
1070
     0
1000
MTEXTEND
  0
MTEXT
  5
1A5
330
21
100
AcDbEntity
  8
标注
 48
5.0
100
AcDbMText
 10
86.10993371135624
 20
95.90097012700828
 30
0.0
 40
0.7874015748031497
 41
15.1555422233215
 71
     1
 72
     5
  1
1/4" {\fArial|b0|i0|c0|p32;REVEAL CUTOUT}
 73
     1
 44
1.0
1001
ACAD
1000
MTEXTBEGIN
1070
    73
1070
     1
1070
    44
1040
1.0
1070
    74
1070
     0
1000
MTEXTEND
  0
ARC
  5
1A6
330
21
100
AcDbEntity
  8
截面层
 62
     1
 48
0.2
370
     9
100
AcDbCircle
 10
84.78280065863193
 20
106.8961538539589
 30
0.0
 40
47.24409448818897
100
AcDbArc
 50
90.0
 51
94.66070520395255
  0
ARC
  5
1A7
330
21
100
AcDbEntity
  8
0
100
AcDbCircle
 10
100.5308321546947
 20
106.8961538539589
 30
0.0
 40
47.24409448818897
100
AcDbArc
 50
90.0
 51
94.66070520395255
  0
ARC
  5
1A8
330
21
100
AcDbEntity
  8
截面层
 62
     1
 48
0.2
370
     9
100
AcDbCircle
 10
100.5308321546947
 20
184.8489097594706
 30
0.0
 40
47.24409448818897
100
AcDbArc
 50
270.0
 51
274.660705203951
  0
ARC
  5
1A9
330
21
100
AcDbEntity
  8
0
100
AcDbCircle
 10
84.78280065863193
 20
184.8489097594706
 30
0.0
 40
47.24409448818897
100
AcDbArc
 50
270.0
 51
274.660705203951
  0
MTEXT
  5
1AA
330
21
100
AcDbEntity
  8
标注
 48
5.0
100
AcDbMText
 10
90.57554029380181
 20
129.2854113717819
 30
0.0
 40
0.7874015748031497
 41
15.1555422233215
 71
     1
 72
     5
  1
1/4" {\fArial|b0|i0|c0|p32;OVERHANG CUTOUT}
 73
     1
 44
1.0
1001
ACAD
1000
MTEXTBEGIN
1070
    73
1070
     1
1070
    44
1040
1.0
1070
    74
1070
     0
1000
MTEXTEND
  0
MTEXT
  5
1AB
330
21
100
AcDbEntity
  8
标注
 48
5.0
100
AcDbMText
 10
90.57554029380154
 20
131.2539153087898
 30
0.0
 40
0.7874015748031497
 41
15.1555422233215
 71
     1
 72
     5
  1
{\fArial|b0|i0|c0|p32;FLUSH CUTOUT}
 73
     1
 44
1.0
1001
ACAD
1000
MTEXTBEGIN
1070
    73
1070
     1
1070
    44
1040
1.0
1070
    74
1070
     0
1000
MTEXTEND
  0
MTEXT
  5
1AC
330
21
100
AcDbEntity
  8
标注
 48
5.0
100
AcDbMText
 10
90.57554029380181
 20
133.2224192457977
 30
0.0
 40
0.7874015748031497
 41
15.1555422233215
 71
     1
 72
     5
  1
1/4" {\fArial|b0|i0|c0|p32;REVEAL CUTOUT}
 73
     1
 44
1.0
1001
ACAD
1000
MTEXTBEGIN
1070
    73
1070
     1
1070
    44
1040
1.0
1070
    74
1070
     0
1000
MTEXTEND
  0
LINE
  5
1AD
330
21
100
AcDbEntity
  8
虚线
 62
    11
 48
0.15
100
AcDbLine
 10
82.91013421323498
 20
128.7372464341711
 30
0.0
 11
89.12693921731882
 21
128.7372464341711
 31
0.0
  0
LINE
  5
1AE
330
21
100
AcDbEntity
  8
截面层
 62
     1
 48
0.2
370
     9
100
AcDbLine
 10
82.91013421323498
 20
130.7057503711791
 30
0.0
 11
89.12693921731882
 21
130.7057503711791
 31
0.0
  0
LINE
  5
1AF
330
21
100
AcDbEntity
  8
虚线
 62
     3
 48
0.3
370
     9
100
AcDbLine
 10
82.91013421323498
 20
132.6742543081869
 30
0.0
 11
89.12693921731882
 21
132.6742543081869
 31
0.0
  0
LINE
  5
1B0
330
21
100
AcDbEntity
  8
虚线
 62
     3
 48
0.3
370
     9
100
AcDbLine
 10
84.78280065863193
 20
137.3548152712817
 30
0.0
 11
100.530832154695
 21
137.354815271282
 31
0.0
  0
LINE
  5
1B1
330
21
100
AcDbEntity
  8
截面层
 62
     1
 48
0.2
370
     9
100
AcDbLine
 10
100.530832154695
 20
137.6048152712816
 30
0.0
 11
84.78280065863161
 21
137.6048152712816
 31
0.0
  0
LINE
  5
1B2
330
21
100
AcDbEntity
  8
虚线
 62
    11
 48
0.15
100
AcDbLine
 10
84.78280065863193
 20
137.8548152712816
 30
0.0
 11
100.530832154695
 21
137.854815271282
 31
0.0
  0
LINE
  5
1B3
330
21
100
AcDbEntity
  8
虚线
 62
    11
 48
0.15
100
AcDbLine
 10
84.78280065863161
 20
153.8902483421478
 30
0.0
 11
100.5308321546947
 21
153.8902483421481
 31
0.0
  0
LINE
  5
1B4
330
21
100
AcDbEntity
  8
截面层
 62
     1
 48
0.2
370
     9
100
AcDbLine
 10
100.5308321546944
 20
154.1402483421478
 30
0.0
 11
84.78280065863161
 21
154.1402483421478
 31
0.0
  0
LINE
  5
1B5
330
21
100
AcDbEntity
  8
虚线
 62
     3
 48
0.3
370
     9
100
AcDbLine
 10
84.78280065863161
 20
154.3902483421478
 30
0.0
 11
100.5308321546947
 21
154.3902483421478
 31
0.0
  0
ARC
  5
1B6
330
21
100
AcDbEntity
  8
虚线
 62
    11
 48
0.15
100
AcDbCircle
 10
84.78280065863193
 20
106.8961538539589
 30
0.0
 40
46.99409448818896
100
AcDbArc
 50
90.00000000000161
 51
94.66070520395255
  0
ARC
  5
1B7
330
21
100
AcDbEntity
  8
虚线
 62
    11
 48
0.15
100
AcDbCircle
 10
81.23189440180681
 20
150.4524379502048
 30
0.0
 40
3.293307086614173
100
AcDbArc
 50
94.66070520394771
 51
175.2675314050209
  0
ARC
  5
1B8
330
21
100
AcDbEntity
  8
虚线
 62
    11
 48
0.15
100
AcDbCircle
 10
136.5544542019388
 20
145.8725318067147
 30
0.0
 40
58.80511811023621
100
AcDbArc
 50
175.2675314050209
 51
184.7324685949791
  0
ARC
  5
1B9
330
21
100
AcDbEntity
  8
虚线
 62
    11
 48
0.15
100
AcDbCircle
 10
84.78280065863193
 20
184.8489097594706
 30
0.0
 40
46.99409448818896
100
AcDbArc
 50
265.3392947960475
 51
270.0000000000017
  0
ARC
  5
1BA
330
21
100
AcDbEntity
  8
虚线
 62
    11
 48
0.15
100
AcDbCircle
 10
81.23189440180681
 20
141.2926256632246
 30
0.0
 40
3.293307086614173
100
AcDbArc
 50
184.7324685949758
 51
265.3392947960507
  0
ARC
  5
1BB
330
21
100
AcDbEntity
  8
虚线
 62
    11
 48
0.15
100
AcDbCircle
 10
100.5308321546947
 20
184.8489097594706
 30
0.0
 40
46.99409448818896
100
AcDbArc
 50
270.0000000000017
 51
274.660705203951
  0
ARC
  5
1BC
330
21
100
AcDbEntity
  8
虚线
 62
    11
 48
0.15
100
AcDbCircle
 10
104.0817384115191
 20
141.2926256632246
 30
0.0
 40
3.293307086614173
100
AcDbArc
 50
274.6607052039526
 51
355.267531405021
  0
ARC
  5
1BD
330
21
100
AcDbEntity
  8
虚线
 62
    11
 48
0.15
100
AcDbCircle
 10
48.7591786113878
 20
145.8725318067147
 30
0.0
 40
58.80511811023621
100
AcDbArc
 50
355.2675314050209
 51
4.732468594979089
  0
ARC
  5
1BE
330
21
100
AcDbEntity
  8
虚线
 62
    11
 48
0.15
100
AcDbCircle
 10
104.0817384115191
 20
150.4524379502048
 30
0.0
 40
3.293307086614173
100
AcDbArc
 50
4.732468594979057
 51
85.33929479604905
  0
ARC
  5
1BF
330
21
100
AcDbEntity
  8
虚线
 62
    11
 48
0.15
100
AcDbCircle
 10
100.5308321546947
 20
106.8961538539589
 30
0.0
 40
46.99409448818896
100
AcDbArc
 50
85.33929479604905
 51
90.00000000000161
  0
ARC
  5
1C0
330
21
100
AcDbEntity
  8
虚线
 62
     3
 48
0.3
370
     9
100
AcDbCircle
 10
100.5308321546947
 20
106.8961538539589
 30
0.0
 40
47.49409448818897
100
AcDbArc
 50
85.33929479604905
 51
90.0
  0
ARC
  5
1C1
330
21
100
AcDbEntity
  8
虚线
 62
     3
 48
0.3
370
     9
100
AcDbCircle
 10
104.0817384115191
 20
150.4524379502048
 30
0.0
 40
3.793307086614173
100
AcDbArc
 50
4.732468594979057
 51
85.33929479604905
  0
ARC
  5
1C2
330
21
100
AcDbEntity
  8
虚线
 62
     3
 48
0.3
370
     9
100
AcDbCircle
 10
48.7591786113878
 20
145.8725318067147
 30
0.0
 40
59.30511811023621
100
AcDbArc
 50
355.2675314050209
 51
4.732468594979089
  0
ARC
  5
1C3
330
21
100
AcDbEntity
  8
虚线
 62
     3
 48
0.3
370
     9
100
AcDbCircle
 10
100.5308321546947
 20
184.8489097594706
 30
0.0
 40
47.49409448818897
100
AcDbArc
 50
270.0000000000017
 51
274.660705203951
  0
ARC
  5
1C4
330
21
100
AcDbEntity
  8
虚线
 62
     3
 48
0.3
370
     9
100
AcDbCircle
 10
104.0817384115191
 20
141.2926256632246
 30
0.0
 40
3.793307086614173
100
AcDbArc
 50
274.6607052039526
 51
355.267531405021
  0
ARC
  5
1C5
330
21
100
AcDbEntity
  8
虚线
 62
     3
 48
0.3
370
     9
100
AcDbCircle
 10
84.78280065863193
 20
184.8489097594706
 30
0.0
 40
47.49409448818897
100
AcDbArc
 50
265.3392947960475
 51
270.0000000000017
  0
ARC
  5
1C6
330
21
100
AcDbEntity
  8
虚线
 62
     3
 48
0.3
370
     9
100
AcDbCircle
 10
84.78280065863193
 20
106.8961538539589
 30
0.0
 40
47.49409448818897
100
AcDbArc
 50
90.0
 51
94.66070520395255
  0
ARC
  5
1C7
330
21
100
AcDbEntity
  8
虚线
 62
     3
 48
0.3
370
     9
100
AcDbCircle
 10
81.23189440180681
 20
141.2926256632246
 30
0.0
 40
3.793307086614173
100
AcDbArc
 50
184.7324685949758
 51
265.3392947960507
  0
ARC
  5
1C8
330
21
100
AcDbEntity
  8
虚线
 62
     3
 48
0.3
370
     9
100
AcDbCircle
 10
136.5544542019388
 20
145.8725318067147
 30
0.0
 40
59.30511811023621
100
AcDbArc
 50
175.2675314050209
 51
184.7324685949791
  0
ARC
  5
1C9
330
21
100
AcDbEntity
  8
虚线
 62
     3
 48
0.3
370
     9
100
AcDbCircle
 10
81.23189440180681
 20
150.4524379502048
 30
0.0
 40
3.793307086614173
100
AcDbArc
 50
94.66070520394771
 51
175.2675314050209
  0
ARC
  5
1CA
330
21
100
AcDbEntity
  8
0
100
AcDbCircle
 10
152.3024856980019
 20
145.8725318067147
 30
0.0
 40
59.05511811023622
100
AcDbArc
 50
175.2675314050209
 51
184.7324685949791
  0
ARC
  5
1CB
330
21
100
AcDbEntity
  8
0
100
AcDbCircle
 10
96.97992589786979
 20
141.2926256632246
 30
0.0
 40
3.543307086614173
100
AcDbArc
 50
184.7324685949758
 51
265.3392947960475
  0
ARC
  5
1CC
330
21
100
AcDbEntity
  8
0
100
AcDbCircle
 10
96.97992589786979
 20
150.4524379502048
 30
0.0
 40
3.543307086614173
100
AcDbArc
 50
94.66070520395092
 51
175.2675314050209
  0
ARC
  5
1CD
330
21
100
AcDbEntity
  8
0
100
AcDbCircle
 10
100.5308321546947
 20
184.8489097594706
 30
0.0
 40
47.24409448818897
100
AcDbArc
 50
265.3392947960475
 51
270.0
  0
ARC
  5
1CE
330
21
100
AcDbEntity
  8
截面层
 62
     1
 48
0.2
370
     9
100
AcDbCircle
 10
100.5308321546947
 20
106.8961538539589
 30
0.0
 40
47.24409448818897
100
AcDbArc
 50
85.33929479604905
 51
90.0
  0
ARC
  5
1CF
330
21
100
AcDbEntity
  8
截面层
 62
     1
 48
0.2
370
     9
100
AcDbCircle
 10
104.0817384115191
 20
141.2926256632246
 30
0.0
 40
3.543307086614173
100
AcDbArc
 50
274.6607052039526
 51
355.267531405021
  0
ARC
  5
1D0
330
21
100
AcDbEntity
  8
截面层
 62
     1
 48
0.2
370
     9
100
AcDbCircle
 10
104.0817384115191
 20
150.4524379502048
 30
0.0
 40
3.543307086614173
100
AcDbArc
 50
4.732468594979057
 51
85.33929479604905
  0
ARC
  5
1D1
330
21
100
AcDbEntity
  8
截面层
 62
     1
 48
0.2
370
     9
100
AcDbCircle
 10
48.7591786113878
 20
145.8725318067147
 30
0.0
 40
59.05511811023622
100
AcDbArc
 50
355.2675314050209
 51
4.732468594979089
  0
ARC
  5
1D2
330
21
100
AcDbEntity
  8
截面层
 62
     1
 48
0.2
370
     9
100
AcDbCircle
 10
136.5544542019388
 20
145.8725318067147
 30
0.0
 40
59.05511811023622
100
AcDbArc
 50
175.2675314050209
 51
184.7324685949791
  0
ARC
  5
1D3
330
21
100
AcDbEntity
  8
截面层
 62
     1
 48
0.2
370
     9
100
AcDbCircle
 10
81.23189440180681
 20
141.2926256632246
 30
0.0
 40
3.543307086614173
100
AcDbArc
 50
184.7324685949758
 51
265.3392947960507
  0
ARC
  5
1D4
330
21
100
AcDbEntity
  8
截面层
 62
     1
 48
0.2
370
     9
100
AcDbCircle
 10
81.23189440180681
 20
150.4524379502048
 30
0.0
 40
3.543307086614173
100
AcDbArc
 50
94.66070520394771
 51
175.2675314050209
  0
ARC
  5
1D5
330
21
100
AcDbEntity
  8
截面层
 62
     1
 48
0.2
370
     9
100
AcDbCircle
 10
84.78280065863193
 20
184.8489097594706
 30
0.0
 40
47.24409448818897
100
AcDbArc
 50
265.3392947960475
 51
270.0
  0
ARC
  5
1D6
330
21
100
AcDbEntity
  8
0
100
AcDbCircle
 10
84.78280065863193
 20
106.8961538539589
 30
0.0
 40
47.24409448818897
100
AcDbArc
 50
85.33929479604905
 51
90.0
  0
ARC
  5
1D7
330
21
100
AcDbEntity
  8
0
100
AcDbCircle
 10
88.33370691545608
 20
141.2926256632246
 30
0.0
 40
3.543307086614173
100
AcDbArc
 50
274.6607052039526
 51
355.267531405021
  0
ARC
  5
1D8
330
21
100
AcDbEntity
  8
0
100
AcDbCircle
 10
88.33370691545608
 20
150.4524379502048
 30
0.0
 40
3.543307086614173
100
AcDbArc
 50
4.732468594979057
 51
85.33929479604905
  0
ARC
  5
1D9
330
21
100
AcDbEntity
  8
0
100
AcDbCircle
 10
33.01114711532472
 20
145.8725318067147
 30
0.0
 40
59.05511811023622
100
AcDbArc
 50
355.2675314050209
 51
4.732468594979089
  0
DIMENSION
  5
1DA
102
{ACAD_XDICTIONARY
360
1DB
102
}
102
{ACAD_REACTORS
330
1DC
102
}
330
21
100
AcDbEntity
  8
标注
100
AcDbDimension
  2
*D19
 10
93.24736758776571
 20
183.1474577784009
 30
0.0
 11
96.26403425443243
 21
183.1474577784009
 31
0.0
 70
    32
 71
     5
 42
1.181102362204682
  3
副本Standard
100
AcDbAlignedDimension
 13
92.06626522556105
 23
183.1474577784009
 33
0.0
 14
93.24736758776571
 24
183.1474577784009
 34
0.0
100
AcDbRotatedDimension
  0
DIMENSION
  5
1DD
102
{ACAD_XDICTIONARY
360
1DE
102
}
102
{ACAD_REACTORS
330
1DF
102
}
330
21
100
AcDbEntity
  8
标注
100
AcDbDimension
  2
*D20
 10
108.798548690128
 20
170.7458829752513
 30
0.0
 11
110.623548690128
 21
170.7458829752513
 31
0.0
 70
    32
 71
     5
 42
0.9842519685039404
  3
副本Standard
100
AcDbAlignedDimension
 13
107.8142967216241
 23
182.2674577784
 33
0.0
 14
108.798548690128
 24
178.423048329582
 34
0.0
100
AcDbRotatedDimension
  0
DIMENSION
  5
1E0
330
21
100
AcDbEntity
  8
标注
100
AcDbDimension
  2
*D12
 10
111.9481549893411
 20
173.8954892744638
 30
0.0
 11
111.948154989341
 21
172.0704892744639
 31
0.0
 70
    32
 71
     5
 42
0.9842519685039974
  3
副本Standard
100
AcDbAlignedDimension
 13
100.5308321546955
 23
174.8797412429679
 33
0.0
 14
104.2709896350098
 24
173.8954892744638
 34
0.0
 50
90.0
100
AcDbRotatedDimension
  0
REGION
  5
1E1
330
21
100
AcDbEntity
  8
0
100
AcDbModelerGeometry
 70
     1
  1
koo nn n o          
  1
ni ^ *+0;:,4 ^ *+0\^ [ nh ^ LR nmqoqnqgmo QK o  
  1
n fqfffffffffffffffj:rooh n:rono 
  1
=0;& {rn {n {rn {rn |
  1
3*2/ {rn {rn {m {o |
  1
,7:33 {rn {rn {rn {l {rn {n |
  1
9><: {rn {rn {k {m {rn {j 90-(>-; ;0*=3: 0*+ |
  1
300/ {rn {rn {i {l |
  1
/3>1:r,*-9><: {rn nooqjloglmnjkifkhk nkgqimgklhlngjmjgk o o o n oqolflhoohghkonjhkg o o 90-(>-;@) V V V V |
  1
<0:;8: {rn {i {i {rn {h 90-(>-; {k {rn |
  1
:;8: {rn {g {g {i {f 90-(>-; |
  1
):-+:' {rn {h {no |
  1
:336/,:r<*-): {rn nooqjloglmnjkifkhk nkgqimgklhlngjmjgk o o o n nqhhnijljkllohogii o o n V V |
  1
/061+ {rn nomqlomkgjifgoongh nkgqimgklhlngjmjgk o |
  0
REGION
  5
1E2
330
21
100
AcDbEntity
  8
0
100
AcDbModelerGeometry
 70
     1
  1
koo nn n o          
  1
ni ^ *+0;:,4 ^ *+0\^ [ nh ^ LR nmqoqnqgmo QK o  
  1
n fqfffffffffffffffj:rooh n:rono 
  1
=0;& {rn {n {rn {rn |
  1
3*2/ {rn {rn {m {o |
  1
,7:33 {rn {rn {rn {l {rn {n |
  1
9><: {rn {rn {k {m {rn {j 90-(>-; ;0*=3: 0*+ |
  1
300/ {rn {rn {i {l |
  1
/3>1:r,*-9><: {rn nooqjloglmnjkifkhk nkgqimgklhlngjmjgk o o o n oqolflhoohghkonjhkg o o 90-(>-;@) V V V V |
  1
<0:;8: {rn {i {i {rn {h 90-(>-; {k {rn |
  1
:;8: {rn {g {g {i {f 90-(>-; |
  1
):-+:' {rn {h {no |
  1
:336/,:r<*-): {rn nooqjloglmnjkifkhk nkgqimgklhlngjmjgk o o o n mqmilhhfjmhjjfojjn o o n V V |
  1
/061+ {rn nomqhfkinnigmmjlgk nkgqimgklhlngjmjgk o |
  0
REGION
  5
1E3
330
21
100
AcDbEntity
  8
0
100
AcDbModelerGeometry
 70
     1
  1
koo nn n o          
  1
ni ^ *+0;:,4 ^ *+0\^ [ nh ^ LR nmqoqnqgmo QK o  
  1
n fqfffffffffffffffj:rooh n:rono 
  1
=0;& {rn {n {rn {rn |
  1
3*2/ {rn {rn {m {o |
  1
,7:33 {rn {rn {rn {l {rn {n |
  1
9><: {rn {rn {k {m {rn {j 90-(>-; ;0*=3: 0*+ |
  1
300/ {rn {rn {i {l |
  1
/3>1:r,*-9><: {rn nooqjloglmnjkifkhk nkgqimgklhlngjmjgk o o o n oqolflhoohghkonjhkg o o 90-(>-;@) V V V V |
  1
<0:;8: {rn {i {i {rn {h 90-(>-; {k {rn |
  1
:;8: {rn {g {g {i {f 90-(>-; |
  1
):-+:' {rn {h {no |
  1
:336/,:r<*-): {rn nooqjloglmnjkifkhk nkgqimgklhlngjmjgk o o o n mqkonjhkgolnkfioij o o n V V |
  1
/061+ {rn nomqflmkoifjhgkkkg nkgqimgklhlngjmjgk o |
  0
REGION
  5
1E4
330
21
100
AcDbEntity
  8
0
100
AcDbModelerGeometry
 70
     1
  1
koo nn n o          
  1
ni ^ *+0;:,4 ^ *+0\^ [ nh ^ LR nmqoqnqgmo QK o  
  1
n fqfffffffffffffffj:rooh n:rono 
  1
=0;& {rn {n {rn {rn |
  1
3*2/ {rn {rn {m {o |
  1
,7:33 {rn {rn {rn {l {rn {n |
  1
9><: {rn {rn {k {m {rn {j 90-(>-; ;0*=3: 0*+ |
  1
300/ {rn {rn {i {l |
  1
/3>1:r,*-9><: {rn gkqhgmgooijgilnfnl nkgqimgklhlngjmjgk o o o n oqolflhoohghkonjhkg o o 90-(>-;@) V V V V |
  1
<0:;8: {rn {i {i {rn {h 90-(>-; {k {rn |
  1
:;8: {rn {g {g {i {f 90-(>-; |
  1
):-+:' {rn {h {no |
  1
:336/,:r<*-): {rn gkqhgmgooijgilnfnl nkgqimgklhlngjmjgk o o o n mqkonjhkgolnkfioij o o n V V |
  1
/061+ {rn ghqngklhjkinhgnkmg nkgqimgklhlngjmjgk o |
  0
REGION
  5
1E5
330
21
100
AcDbEntity
  8
0
100
AcDbModelerGeometry
 70
     1
  1
koo nn n o          
  1
ni ^ *+0;:,4 ^ *+0\^ [ nh ^ LR nmqoqnqgmo QK o  
  1
n fqfffffffffffffffj:rooh n:rono 
  1
=0;& {rn {n {rn {rn |
  1
3*2/ {rn {rn {m {o |
  1
,7:33 {rn {rn {rn {l {rn {n |
  1
9><: {rn {rn {k {m {rn {j 90-(>-; ;0*=3: 0*+ |
  1
300/ {rn {rn {i {l |
  1
/3>1:r,*-9><: {rn gkqhgmgooijgilnfnl nkgqimgklhlngjmjgk o o o n oqolflhoohghkonjhkg o o 90-(>-;@) V V V V |
  1
<0:;8: {rn {i {i {rn {h 90-(>-; {k {rn |
  1
:;8: {rn {g {g {i {f 90-(>-; |
  1
):-+:' {rn {h {no |
  1
:336/,:r<*-): {rn gkqhgmgooijgilnfnl nkgqimgklhlngjmjgk o o o n mqmilhhfjmhjjfojjn o o n V V |
  1
/061+ {rn ghqokijgonginfohfj nkgqimgklhlngjmjgk o |
  0
REGION
  5
1E6
330
21
100
AcDbEntity
  8
0
100
AcDbModelerGeometry
 70
     1
  1
koo nn n o          
  1
ni ^ *+0;:,4 ^ *+0\^ [ nh ^ LR nmqoqnqgmo QK o  
  1
n fqfffffffffffffffj:rooh n:rono 
  1
=0;& {rn {n {rn {rn |
  1
3*2/ {rn {rn {m {o |
  1
,7:33 {rn {rn {rn {l {rn {n |
  1
9><: {rn {rn {k {m {rn {j 90-(>-; ;0*=3: 0*+ |
  1
300/ {rn {rn {i {l |
  1
/3>1:r,*-9><: {rn gkqhgmgooijgilnfnl nkgqimgklhlngjmjgk o o o n oqolflhoohghkonjhkg o o 90-(>-;@) V V V V |
  1
<0:;8: {rn {i {i {rn {h 90-(>-; {k {rn |
  1
:;8: {rn {g {g {i {f 90-(>-; |
  1
):-+:' {rn {h {no |
  1
:336/,:r<*-): {rn gkqhgmgooijgilnfnl nkgqimgklhlngjmjgk o o o n nqhhnijljkllohogii o o n V V |
  1
/061+ {rn giqjjkkjkmonflggmj nkgqimgklhlngjmjgk o |
  0
LINE
  5
1E7
330
21
100
AcDbEntity
  8
0
100
AcDbLine
 10
76.5150841231989
 20
150.5969412555336
 30
0.0
 11
76.5150841231989
 21
141.1481223578959
 31
0.0
  0
LINE
  5
1E8
330
21
100
AcDbEntity
  8
0
100
AcDbLine
 10
81.0426431783169
 20
136.6205633027778
 30
0.0
 11
104.2709896350097
 21
136.6205633027778
 31
0.0
  0
LINE
  5
1E9
330
21
100
AcDbEntity
  8
0
100
AcDbLine
 10
104.2709896350097
 20
155.1245003106517
 30
0.0
 11
88.33370691545628
 21
155.1245003106517
 31
0.0
  0
LINE
  5
1EA
330
21
100
AcDbEntity
  8
0
100
AcDbLine
 10
108.7985486901279
 20
141.1481223578959
 30
0.0
 11
108.7985486901279
 21
150.5969412555336
 31
0.0
  0
ARC
  5
1EB
330
21
100
AcDbEntity
  8
0
100
AcDbCircle
 10
81.0426431783169
 20
150.5969412555336
 30
0.0
 40
4.52755905511811
100
AcDbArc
 50
90.0
 51
180.0
  0
ARC
  5
1EC
330
21
100
AcDbEntity
  8
0
100
AcDbCircle
 10
81.0426431783169
 20
141.1481223578959
 30
0.0
 40
4.52755905511811
100
AcDbArc
 50
180.0
 51
270.0
  0
ARC
  5
1ED
330
21
100
AcDbEntity
  8
0
100
AcDbCircle
 10
104.2709896350097
 20
141.1481223578959
 30
0.0
 40
4.52755905511811
100
AcDbArc
 50
270.0
 51
0.0
  0
ARC
  5
1EE
330
21
100
AcDbEntity
  8
0
100
AcDbCircle
 10
104.2709896350097
 20
150.5969412555336
 30
0.0
 40
4.52755905511811
100
AcDbArc
 50
0.0
 51
90.0
  0
LINE
  5
1EF
330
21
100
AcDbEntity
  8
0
100
AcDbLine
 10
88.33370691545628
 20
155.1245003106517
 30
0.0
 11
81.0426431783169
 21
155.1245003106517
 31
0.0
  0
MTEXT
  5
1F0
330
21
100
AcDbEntity
  8
标注
 48
5.0
100
AcDbMText
 10
88.67808273660488
 20
164.8705982060124
 30
0.0
 40
0.7874015748031497
 41
15.1555422233215
 71
     1
 72
     5
  1
{\fArial|b0|i0|c0|p32;OVERHEAD VIEW}
 73
     1
 44
1.0
1001
ACAD
1000
MTEXTBEGIN
1070
    73
1070
     1
1070
    44
1040
1.0
1070
    74
1070
     0
1000
MTEXTEND
  0
MTEXT
  5
1F1
330
21
100
AcDbEntity
  8
标注
 48
5.0
100
AcDbMText
 10
88.64000531140353
 20
199.7724224238553
 30
0.0
 40
0.7874015748031497
 41
15.1555422233215
 71
     1
 72
     5
  1
{\fArial|b0|i0|c0|p32;FRONT VIEW}
 73
     1
 44
1.0
1001
ACAD
1000
MTEXTBEGIN
1070
    73
1070
     1
1070
    44
1040
1.0
1070
    74
1070
     0
1000
MTEXTEND
  0
LINE
  5
1F2
330
21
100
AcDbEntity
  8
中心线
 48
0.1
100
AcDbLine
 10
105.5048410586827
 20
185.9033632902122
 30
0.0
 11
95.61837520163123
 21
185.903363290212
 31
0.0
  0
LINE
  5
1F3
330
21
100
AcDbEntity
  8
中心线
 48
0.1
100
AcDbLine
 10
100.5308321546951
 20
174.462045468681
 30
0.0
 11
100.5308321546947
 21
191.9498711980621
 31
0.0
  0
LINE
  5
1F4
330
21
100
AcDbEntity
  8
中心线
 48
0.1
100
AcDbLine
 10
100.5308321546947
 20
202.4887808320476
 30
0.0
 11
100.5308321546945
 21
206.199263679642
 31
0.0
  0
LINE
  5
1F5
330
21
100
AcDbEntity
  8
中心线
 48
0.1
100
AcDbLine
 10
84.78280065863197
 20
202.4887808320476
 30
0.0
 11
84.78280065863197
 21
206.1992636796417
 31
0.0
  0
DIMENSION
  5
1F6
102
{ACAD_XDICTIONARY
360
1F7
102
}
102
{ACAD_REACTORS
330
1F8
102
}
330
21
100
AcDbEntity
  8
标注
100
AcDbDimension
  2
*D21
 10
81.23189440180686
 20
178.5675516349108
 30
0.0
 11
81.17962943840403
 21
178.4902561886486
 31
0.0
 70
   164
 71
     5
 42
3.543307086614078
  3
副本Standard
100
AcDbRadialDimension
 15
79.24714895612462
 25
175.6322815236786
 35
0.0
 40
0.0
1001
ACAD
1000
DSTYLE
1002
{
1070
   288
1070
     1
1002
}
  0
LINE
  5
1F9
330
21
100
AcDbEntity
  8
中心线
 48
0.1
100
AcDbLine
 10
84.78280065863197
 20
174.4620454686807
 30
0.0
 11
84.78280065863197
 21
191.9498711980619
 31
0.0
  0
LINE
  5
1FA
330
21
100
AcDbEntity
  8
中心线
 48
0.1
100
AcDbLine
 10
79.80879175464413
 20
185.9033632902119
 30
0.0
 11
89.69525761169563
 21
185.9033632902119
 31
0.0
  0
LINE
  5
1FB
330
21
100
AcDbEntity
  8
中心线
 48
0.1
100
AcDbLine
 10
92.65681640666343
 20
202.5700694718085
 30
0.0
 11
92.65681640666343
 21
213.7983368487804
 31
0.0
  0
LINE
  5
1FC
330
21
100
AcDbEntity
  8
中心线
 48
0.1
100
AcDbLine
 10
92.65681640666343
 20
173.4924457696754
 30
0.0
 11
92.65681640666343
 21
192.9270200777094
 31
0.0
  0
DIMENSION
  5
1FD
102
{ACAD_XDICTIONARY
360
1FE
102
}
102
{ACAD_REACTORS
330
1FF
102
}
330
21
100
AcDbEntity
  8
标注
100
AcDbDimension
  2
*D22
 10
79.15690233990251
 20
204.8553953490282
 30
0.0
 11
80.67455289684394
 21
206.2661102630979
 31
0.0
 70
   164
 71
     5
 42
1.3779527559046
  3
副本Standard
100
AcDbRadialDimension
 15
78.14763444150063
 25
203.917241786566
 35
0.0
 40
0.0
1001
ACAD
1000
DSTYLE
1002
{
1070
   279
1070
     1
1070
   288
1070
     1
1002
}
  0
DIMENSION
  5
200
330
21
100
AcDbEntity
  8
标注
 48
5.0
100
AcDbDimension
  2
*D13
 10
111.948154989341
 20
203.1956361861142
 30
0.0
 11
111.948154989341
 21
208.1968351538736
 31
0.0
 70
   160
 71
     5
 42
10.00239793551822
  3
副本Standard
100
AcDbAlignedDimension
 13
108.798548690128
 23
213.1980341216324
 33
0.0
 14
102.4758728108798
 24
203.1956361861142
 34
0.0
 50
90.0
100
AcDbRotatedDimension
  0
DIMENSION
  5
201
330
21
100
AcDbEntity
  8
标注
 48
5.0
100
AcDbDimension
  2
*D14
 10
108.7985486901279
 20
168.3836782508418
 30
0.0
 11
92.65681640666388
 21
168.3836782508418
 31
0.0
 70
   160
 71
     5
 42
32.28346456692907
  3
副本Standard
100
AcDbAlignedDimension
 13
76.51508412319884
 23
178.4230483295824
 33
0.0
 14
108.7985486901279
 24
178.423048329582
 34
0.0
100
AcDbRotatedDimension
  0
DIMENSION
  5
202
330
21
100
AcDbEntity
  8
标注
 48
5.0
100
AcDbDimension
  2
*D15
 10
107.8142967216241
 20
170.7458829752513
 30
0.0
 11
100.5308321546948
 21
170.7458829752513
 31
0.0
 70
   160
 71
     5
 42
14.56692913385836
  3
副本Standard
100
AcDbAlignedDimension
 13
93.24736758776571
 23
183.1474577784
 33
0.0
 14
107.8142967216241
 24
183.1474577784
 34
0.0
100
AcDbRotatedDimension
  0
DIMENSION
  5
203
330
21
100
AcDbEntity
  8
标注
 48
5.0
100
AcDbDimension
  2
*D16
 10
92.06626522556105
 20
170.7458829752513
 30
0.0
 11
84.78280065863188
 21
170.7458829752513
 31
0.0
 70
    32
 71
     5
 42
14.56692913385831
  3
副本Standard
100
AcDbAlignedDimension
 13
77.49933609170274
 23
183.1474577784006
 33
0.0
 14
92.06626522556105
 24
183.1474577784009
 34
0.0
100
AcDbRotatedDimension
  0
DIMENSION
  5
204
330
21
100
AcDbEntity
  8
标注
 48
5.0
100
AcDbDimension
  2
*D17
 10
111.948154989341
 20
174.8797412429679
 30
0.0
 11
111.948154989341
 21
183.1474577784009
 31
0.0
 70
   160
 71
     5
 42
16.53543307086607
  3
副本Standard
100
AcDbAlignedDimension
 13
100.5308321546948
 23
191.4151743138339
 33
0.0
 14
100.5308321546955
 24
174.8797412429679
 34
0.0
 50
90.0
100
AcDbRotatedDimension
  0
DIMENSION
  5
205
330
21
100
AcDbEntity
  8
标注
 48
5.0
100
AcDbDimension
  2
*D18
 10
114.3103597137506
 20
173.8954892744638
 30
0.0
 11
114.3103597137506
 21
183.5583146586871
 31
0.0
 70
   160
 71
     5
 42
18.50393700787407
  3
副本Standard
100
AcDbAlignedDimension
 13
104.2709896350098
 23
192.3994262823379
 33
0.0
 14
104.2709896350098
 24
173.8954892744638
 34
0.0
 50
90.0
100
AcDbRotatedDimension
  0
ARC
  5
206
330
21
100
AcDbEntity
  8
截面层
100
AcDbCircle
 10
106.1567304734238
 20
204.8553953490281
 30
0.0
 40
1.377952755905511
100
AcDbArc
 50
276.4861306932858
 51
357.5000000002361
  0
ARC
  5
207
330
21
100
AcDbEntity
  8
截面层
100
AcDbCircle
 10
94.90493383596556
 20
204.8553953490281
 30
0.0
 40
1.377952755905511
100
AcDbArc
 50
182.4999999997638
 51
263.5138693067142
  0
ARC
  5
208
330
21
100
AcDbEntity
  8
截面层
100
AcDbCircle
 10
90.40869897736076
 20
204.8553953490281
 30
0.0
 40
1.377952755905511
100
AcDbArc
 50
276.4861306932858
 51
357.5000000002361
  0
ARC
  5
209
102
{ACAD_REACTORS
330
1FF
102
}
330
21
100
AcDbEntity
  8
截面层
100
AcDbCircle
 10
79.1569023399025
 20
204.8553953490281
 30
0.0
 40
1.377952755905511
100
AcDbArc
 50
182.4999999997638
 51
263.5138693067142
  0
LINE
  5
20A
330
21
100
AcDbEntity
  8
截面层
100
AcDbLine
 10
107.5333717236352
 20
204.7952898939967
 30
0.0
 11
107.8142967216241
 21
213.0011837279317
 31
0.0
  0
LINE
  5
20B
330
21
100
AcDbEntity
  8
截面层
100
AcDbLine
 10
93.24736758776571
 20
213.0011837279317
 30
0.0
 11
93.52829258575464
 21
204.7952898939967
 31
0.0
  0
LINE
  5
20C
330
21
100
AcDbEntity
  8
截面层
100
AcDbLine
 10
91.78534022757212
 20
204.7952898939967
 30
0.0
 11
92.06626522556105
 21
213.0011837279317
 31
0.0
  0
LINE
  5
20D
330
21
100
AcDbEntity
  8
截面层
100
AcDbLine
 10
77.49933609170291
 20
213.0011837279317
 30
0.0
 11
77.7802610896918
 21
204.7952898939967
 31
0.0
  0
LINE
  5
20E
330
21
100
AcDbEntity
  8
0
100
AcDbLine
 10
88.33370691545637
 20
192.3994262823379
 30
0.0
 11
81.0426431783169
 21
192.3994262823379
 31
0.0
  0
ARC
  5
20F
330
21
100
AcDbEntity
  8
0
100
AcDbCircle
 10
104.2709896350098
 20
187.8718672272198
 30
0.0
 40
4.52755905511811
100
AcDbArc
 50
0.0
 51
90.0
  0
ARC
  5
210
330
21
100
AcDbEntity
  8
0
100
AcDbCircle
 10
104.2709896350098
 20
178.423048329582
 30
0.0
 40
4.52755905511811
100
AcDbArc
 50
270.0
 51
0.0
  0
ARC
  5
211
330
21
100
AcDbEntity
  8
0
100
AcDbCircle
 10
81.0426431783169
 20
178.423048329582
 30
0.0
 40
4.52755905511811
100
AcDbArc
 50
180.0
 51
270.0
  0
ARC
  5
212
330
21
100
AcDbEntity
  8
0
100
AcDbCircle
 10
81.0426431783169
 20
187.8718672272198
 30
0.0
 40
4.52755905511811
100
AcDbArc
 50
90.0
 51
180.0
  0
LINE
  5
213
102
{ACAD_REACTORS
330
1DF
102
}
330
21
100
AcDbEntity
  8
0
100
AcDbLine
 10
108.798548690128
 20
178.423048329582
 30
0.0
 11
108.798548690128
 21
187.8718672272198
 31
0.0
  0
LINE
  5
214
330
21
100
AcDbEntity
  8
0
100
AcDbLine
 10
104.2709896350098
 20
192.3994262823379
 30
0.0
 11
88.33370691545637
 21
192.3994262823379
 31
0.0
  0
LINE
  5
215
330
21
100
AcDbEntity
  8
0
100
AcDbLine
 10
81.0426431783169
 20
173.8954892744638
 30
0.0
 11
104.2709896350098
 21
173.8954892744638
 31
0.0
  0
LINE
  5
216
330
21
100
AcDbEntity
  8
0
100
AcDbLine
 10
76.51508412319902
 20
187.8718672272198
 30
0.0
 11
76.51508412319902
 21
178.423048329582
 31
0.0
  0
LINE
  5
217
330
21
100
AcDbEntity
  8
0
100
AcDbLine
 10
77.30248569800193
 20
213.1980341216324
 30
0.0
 11
108.0111471153248
 21
213.1980341216324
 31
0.0
  0
ARC
  5
218
330
21
100
AcDbEntity
  8
截面层
100
AcDbCircle
 10
100.530832154695
 20
254.3397664050969
 30
0.0
 40
51.18110236220473
100
AcDbArc
 50
272.177941813943
 51
276.4861306932858
  0
ARC
  5
219
330
21
100
AcDbEntity
  8
截面层
100
AcDbCircle
 10
84.78280065863197
 20
254.3397664050969
 30
0.0
 40
51.18110236220473
100
AcDbArc
 50
272.177941813943
 51
276.4861306932858
  0
ARC
  5
21A
330
21
100
AcDbEntity
  8
截面层
100
AcDbCircle
 10
108.0111471153248
 20
213.0011837279317
 30
0.0
 40
0.1968503937007874
100
AcDbArc
 50
90.0
 51
180.0
  0
ARC
  5
21B
330
21
100
AcDbEntity
  8
截面层
100
AcDbCircle
 10
93.05051719406504
 20
213.0011837279317
 30
0.0
 40
0.1968503937007874
100
AcDbArc
 50
0.0
 51
90.0
  0
ARC
  5
21C
330
21
100
AcDbEntity
  8
截面层
100
AcDbCircle
 10
92.26311561926179
 20
213.0011837279317
 30
0.0
 40
0.1968503937007874
100
AcDbArc
 50
90.0
 51
180.0
  0
ARC
  5
21D
330
21
100
AcDbEntity
  8
截面层
100
AcDbCircle
 10
77.30248569800193
 20
213.0011837279317
 30
0.0
 40
0.1968503937007874
100
AcDbArc
 50
0.0
 51
90.0
  0
ARC
  5
21E
330
21
100
AcDbEntity
  8
截面层
100
AcDbCircle
 10
100.530832154695
 20
254.3397664050969
 30
0.0
 40
51.18110236220473
100
AcDbArc
 50
263.5138693067142
 51
267.8220581860571
  0
ARC
  5
21F
330
21
100
AcDbEntity
  8
截面层
100
AcDbCircle
 10
84.78280065863197
 20
254.3397664050969
 30
0.0
 40
51.18110236220473
100
AcDbArc
 50
263.5138693067142
 51
267.8220581860571
  0
LINE
  5
220
330
21
100
AcDbEntity
  8
截面层
100
AcDbLine
 10
108.0111471153248
 20
213.1980341216324
 30
0.0
 11
108.798548690128
 21
213.1980341216324
 31
0.0
  0
LINE
  5
221
330
21
100
AcDbEntity
  8
截面层
100
AcDbLine
 10
92.26311561926179
 20
213.1980341216324
 30
0.0
 11
93.05051719406504
 21
213.1980341216324
 31
0.0
  0
LINE
  5
222
330
21
100
AcDbEntity
  8
截面层
100
AcDbLine
 10
76.51508412319902
 20
213.1980341216324
 30
0.0
 11
77.30248569800193
 21
213.1980341216324
 31
0.0
  0
REGION
  5
223
102
{ACAD_REACTORS
330
1DC
102
}
330
21
100
AcDbEntity
  8
0
100
AcDbModelerGeometry
 70
     1
  1
koo ki n o          
  1
ni ^ *+0;:,4 ^ *+0\^ [ nh ^ LR nmqoqnqgmo QK o  
  1
n fqfffffffffffffffj:rooh n:rono 
  1
=0;& {rn {n {rn {rn |
  1
3*2/ {rn {rn {m {o |
  1
,7:33 {rn {rn {rn {l {rn {n |
  1
9><: {rn {rn {k {m {rn {j 90-(>-; ;0*=3: 0*+ |
  1
300/ {rn {rn {i {l |
  1
/3>1:r,*-9><: {rn nooqjloglmnjkifkhf nglqnkhkjhhhgkoofl o o o n rhqmlnfmhmgiljmimnm:rong roqolflhoohghkonjhkg o 90-(>-;@) V V V V |
  1
<0:;8: {rn {h {g {rn {f 90-(>-; {k {rn |
  1
<0:;8: {rn {no {i {rn {nn 90-(>-; {k {rn |
  1
<0:;8: {rn {i {nm {rn {nl 90-(>-; {k {rn |
  1
:;8: {rn {nk {nj {i {ni 90-(>-; |
  1
<0:;8: {rn {nh {h {rn {ng 90-(>-; {k {rn |
  1
:;8: {rn {nj {nf {h {mo 90-(>-; |
  1
<0:;8: {rn {g {mn {rn {mm 90-(>-; {k {rn |
  1
:;8: {rn {ml {nk {g {mk 90-(>-; |
  1
):-+:' {rn {f {mj |
  1
):-+:' {rn {f {mi |
  1
:336/,:r<*-): {rn kgqhjfnhginnlghggn nglqnkhkjhhhgkoofl o o o n rnqogkhgfofmfjmgflm:ronk rjfqojjnngnnomlimmm o n V V |
  1
<0:;8: {rn {mh {no {rn {mg 90-(>-; {k {rn |
  1
:;8: {rn {nf {mf {no {lo 90-(>-; |
  1
):-+:' {rn {nn {ln |
  1
:336/,:r<*-): {rn nokqognhlgknnjnfmn nghqhmhlilfmngfn o o o n riqjoghlkjjhhnhljfj:roni rlqjkllohogiinknhlm o n V V |
  1
<0:;8: {rn {nm {mh {rn {lm 90-(>-; {k {rn |
  1
:;8: {rn {ll {ml {nm {lk 90-(>-; |
  1
):-+:' {rn {mm {lj |
  1
:336/,:r<*-): {rn nokqognhlgknnjnfmn nhgqjihjjnilkfnogk o o o n riqjoghlkjjhhnhljfj:roni rlqjkllohogiinknhlm o n V V |
  1
/061+ {rn nohqinmfijilmgokkj nhgqmhjmnhmoommonh o |
  1
/061+ {rn nohqinmfijilmgokkj nggqonfifgljijgnh o |
  1
<0:;8: {rn {mn {nh {rn {li 90-(>-; {k {rn |
  1
:;8: {rn {mf {lh {nh {lg 90-(>-; |
  1
):-+:' {rn {ng {lf |
  1
:336/,:r<*-): {rn nooqjloglmnjkifkhf nkkqnhnohfgmjikjom o o o n rgqihglnmhklimlnkij:ronj rkhqmkkofkkggnggfhg o n V V |
  1
/061+ {rn nokqlifikfhmfikonm nfnqmjgfjkjmkmgfkf o |
  1
:;8: {rn {ko {ll {mn {kn 90-(>-; |
  1
):-+:' {rn {lm {km |
  1
:336/,:r<*-): {rn nooqjloglmnjkifkhf mmmqnmlgljhlnnjigm o o o n rgqihglnmhklimlnkij:ronj rkhqmkkofkkggnggfhg o n V V |
  1
/061+ {rn nokqlifikfhmfikonm nhjqoljfinolmjnmfk o |
  1
:;8: {rn {lh {ko {mh {kl 90-(>-; |
  1
):-+:' {rn {mg {kk |
  1
:336/,:r<*-): {rn fiqfhffmjgfhgiffnf nghqhmhlilfmngfn o o o n riqjoghlkjjhhnhljfj:roni rlqjkllohogiinknhlm o n V V |
  1
/061+ {rn fiqifmonkjhfhkfonk nfnqmjgfjkjmkmgfkf o |
  1
):-+:' {rn {li {kj |
  1
:336/,:r<*-): {rn fiqfhffmjgfhgiffnf nhgqjihjjnilkfnogk o o o n riqjoghlkjjhhnhljfj:roni rlqjkllohogiinknhlm o n V V |
  1
/061+ {rn fiqifmonkjhfhkfonk nhjqoljfinolmjnmfk o |
  1
:336/,:r<*-): {rn njmqlomkgjifgoonfl nglqnkhkjhhhgkoofl o o o n rnqogkhgfofmfjmgflm:ronk rjfqojjnngnnomlimmm o n V V |
  1
/061+ {rn flqkkgifgihijgjlii nggqonfifgljijgnh o |
  1
/061+ {rn flqkkgifgihijgjlii nhgqmhjmnhmoommonh o |
  0
REGION
  5
224
102
{ACAD_REACTORS
330
1F8
102
}
330
21
100
AcDbEntity
  8
0
100
AcDbModelerGeometry
 70
     1
  1
koo ki n o          
  1
ni ^ *+0;:,4 ^ *+0\^ [ nh ^ LR nmqoqnqgmo QK o  
  1
n fqfffffffffffffffj:rooh n:rono 
  1
=0;& {rn {n {rn {rn |
  1
3*2/ {rn {rn {m {o |
  1
,7:33 {rn {rn {rn {l {rn {n |
  1
9><: {rn {rn {k {m {rn {j 90-(>-; ;0*=3: 0*+ |
  1
300/ {rn {rn {i {l |
  1
/3>1:r,*-9><: {rn gkqhgmgooijgilnfh nglqnkhkjhhhgkoofl o o o n rhqmlnfmhmgiljmimnm:rong roqolflhoohghkonjhkg o 90-(>-;@) V V V V |
  1
<0:;8: {rn {h {g {rn {f 90-(>-; {k {rn |
  1
<0:;8: {rn {no {i {rn {nn 90-(>-; {k {rn |
  1
<0:;8: {rn {i {nm {rn {nl 90-(>-; {k {rn |
  1
:;8: {rn {nk {nj {i {ni 90-(>-; |
  1
<0:;8: {rn {nh {h {rn {ng 90-(>-; {k {rn |
  1
:;8: {rn {nj {nf {h {mo 90-(>-; |
  1
<0:;8: {rn {g {mn {rn {mm 90-(>-; {k {rn |
  1
:;8: {rn {ml {nk {g {mk 90-(>-; |
  1
):-+:' {rn {f {mj |
  1
):-+:' {rn {f {mi |
  1
:336/,:r<*-): {rn llqonnnkhnnjlmkglm nglqnkhkjhhhgkoofl o o o n rnqogkhgfofmfjmgflm:ronk rjfqojjnngnnomlimmm o n V V |
  1
<0:;8: {rn {mh {no {rn {mg 90-(>-; {k {rn |
  1
:;8: {rn {nf {mf {no {lo 90-(>-; |
  1
):-+:' {rn {nn {ln |
  1
:336/,:r<*-): {rn ggqlllhoifnjkjinim nghqhmhlilfmngfn o o o n riqjoghlkjjhhnhljfj:roni rlqjkllohogiinknhlm o n V V |
  1
<0:;8: {rn {nm {mh {rn {lm 90-(>-; {k {rn |
  1
:;8: {rn {ll {ml {nm {lk 90-(>-; |
  1
):-+:' {rn {mm {lj |
  1
:336/,:r<*-): {rn ggqlllhoifnjkjinim nhgqjihjjnilkfnogk o o o n riqjoghlkjjhhnhljfj:roni rlqjkllohogiinknhlm o n V V |
  1
/061+ {rn fnqgikflknlihknlfh nhgqmhjmnhmoommonh o |
  1
/061+ {rn fnqgikflknlihknlfh nggqonfifgljijgnh o |
  1
<0:;8: {rn {mn {nh {rn {li 90-(>-; {k {rn |
  1
:;8: {rn {mf {lh {nh {lg 90-(>-; |
  1
):-+:' {rn {ng {lf |
  1
:336/,:r<*-): {rn gkqhgmgooijgilnfh nkkqnhnohfgmjikjom o o o n rgqihglnmhklimlnkij:ronj rkhqmkkofkkggnggfhg o n V V |
  1
/061+ {rn ggqimningmlljhhoih nfnqmjgfjkjmkmgfkf o |
  1
:;8: {rn {ko {ll {mn {kn 90-(>-; |
  1
):-+:' {rn {lm {km |
  1
:336/,:r<*-): {rn gkqhgmgooijgilnfh mmmqnmlgljhlnnjigm o o o n rgqihglnmhklimlnkij:ronj rkhqmkkofkkggnggfhg o n V V |
  1
/061+ {rn ggqimningmlljhhoih nhjqoljfinolmjnmfk o |
  1
:;8: {rn {lh {ko {mh {kl 90-(>-; |
  1
):-+:' {rn {mg {kk |
  1
:336/,:r<*-): {rn gnqmlngfkkongoigif nghqhmhlilfmngfn o o o n riqjoghlkjjhhnhljfj:roni rlqjkllohogiinknhlm o n V V |
  1
/061+ {rn goqfklfglogliginfm nfnqmjgfjkjmkmgfkf o |
  1
):-+:' {rn {li {kj |
  1
:336/,:r<*-): {rn gnqmlngfkkongoigif nhgqjihjjnilkfnogk o o o n riqjoghlkjjhhnhljfj:roni rlqjkllohogiinknhlm o n V V |
  1
/061+ {rn goqfklfglogliginfm nhjqoljfinolmjnmfk o |
  1
:336/,:r<*-): {rn nliqjjkkjkmonflggg nglqnkhkjhhhgkoofl o o o n rnqogkhgfofmfjmgflm:ronk rjfqojjnngnnomlimmm o n V V |
  1
/061+ {rn hhqhooiihngojmmlni nggqonfifgljijgnh o |
  1
/061+ {rn hhqhooiihngojmmlni nhgqmhjmnhmoommonh o |
  0
REGION
  5
225
330
21
100
AcDbEntity
  8
0
100
AcDbModelerGeometry
 70
     1
  1
koo nn n o          
  1
ni ^ *+0;:,4 ^ *+0\^ [ nh ^ LR nmqoqnqgmo QK o  
  1
n fqfffffffffffffffj:rooh n:rono 
  1
=0;& {rn {n {rn {rn |
  1
3*2/ {rn {rn {m {o |
  1
,7:33 {rn {rn {rn {l {rn {n |
  1
9><: {rn {rn {k {m {rn {j 90-(>-; ;0*=3: 0*+ |
  1
300/ {rn {rn {i {l |
  1
/3>1:r,*-9><: {rn gkqhgmgooijgilnfh ngjqfollilmfomnnfi o o o n oqolflhoohghkonjhkg o o 90-(>-;@) V V V V |
  1
<0:;8: {rn {i {i {rn {h 90-(>-; {k {rn |
  1
:;8: {rn {g {g {i {f 90-(>-; |
  1
):-+:' {rn {h {no |
  1
:336/,:r<*-): {rn gkqhgmgooijgilnfh ngjqfollilmfomnnfi o o o n nqhhnijljkllohogii o o n V V |
  1
/061+ {rn giqjjkkjkmonflgggn ngjqfollilmfomnnfi o |
  0
REGION
  5
226
330
21
100
AcDbEntity
  8
0
100
AcDbModelerGeometry
 70
     1
  1
koo nn n o          
  1
ni ^ *+0;:,4 ^ *+0\^ [ nh ^ LR nmqoqnqgmo QK o  
  1
n fqfffffffffffffffj:rooh n:rono 
  1
=0;& {rn {n {rn {rn |
  1
3*2/ {rn {rn {m {o |
  1
,7:33 {rn {rn {rn {l {rn {n |
  1
9><: {rn {rn {k {m {rn {j 90-(>-; ;0*=3: 0*+ |
  1
300/ {rn {rn {i {l |
  1
/3>1:r,*-9><: {rn gkqhgmgooijgilnfh ngjqfollilmfomnnfi o o o n oqolflhoohghkonjhkg o o 90-(>-;@) V V V V |
  1
<0:;8: {rn {i {i {rn {h 90-(>-; {k {rn |
  1
:;8: {rn {g {g {i {f 90-(>-; |
  1
):-+:' {rn {h {no |
  1
:336/,:r<*-): {rn gkqhgmgooijgilnfh ngjqfollilmfomnnfi o o o n mqmilhhfjmhjjfojjn o o n V V |
  1
/061+ {rn ghqokijgonginfogjm ngjqfollilmfomnnfi o |
  0
REGION
  5
227
330
21
100
AcDbEntity
  8
0
100
AcDbModelerGeometry
 70
     1
  1
koo nn n o          
  1
ni ^ *+0;:,4 ^ *+0\^ [ nh ^ LR nmqoqnqgmo QK o  
  1
n fqfffffffffffffffj:rooh n:rono 
  1
=0;& {rn {n {rn {rn |
  1
3*2/ {rn {rn {m {o |
  1
,7:33 {rn {rn {rn {l {rn {n |
  1
9><: {rn {rn {k {m {rn {j 90-(>-; ;0*=3: 0*+ |
  1
300/ {rn {rn {i {l |
  1
/3>1:r,*-9><: {rn gkqhgmgooijgilnfh ngjqfollilmfomnnfi o o o n oqolflhoohghkonjhkg o o 90-(>-;@) V V V V |
  1
<0:;8: {rn {i {i {rn {h 90-(>-; {k {rn |
  1
:;8: {rn {g {g {i {f 90-(>-; |
  1
):-+:' {rn {h {no |
  1
:336/,:r<*-): {rn gkqhgmgooijgilnfh ngjqfollilmfomnnfi o o o n mqkonjhkgolnkfioij o o n V V |
  1
/061+ {rn ghqngklhjkinhgnkgj ngjqfollilmfomnnfi o |
  0
REGION
  5
228
330
21
100
AcDbEntity
  8
0
100
AcDbModelerGeometry
 70
     1
  1
koo nn n o          
  1
ni ^ *+0;:,4 ^ *+0\^ [ nh ^ LR nmqoqnqgmo QK o  
  1
n fqfffffffffffffffj:rooh n:rono 
  1
=0;& {rn {n {rn {rn |
  1
3*2/ {rn {rn {m {o |
  1
,7:33 {rn {rn {rn {l {rn {n |
  1
9><: {rn {rn {k {m {rn {j 90-(>-; ;0*=3: 0*+ |
  1
300/ {rn {rn {i {l |
  1
/3>1:r,*-9><: {rn nooqjloglmnjkifkhf ngjqfollilmfomnnfi o o o n oqolflhoohghkonjhkg o o 90-(>-;@) V V V V |
  1
<0:;8: {rn {i {i {rn {h 90-(>-; {k {rn |
  1
:;8: {rn {g {g {i {f 90-(>-; |
  1
):-+:' {rn {h {no |
  1
:336/,:r<*-): {rn nooqjloglmnjkifkhf ngjqfollilmfomnnfi o o o n mqkonjhkgolnkfioij o o n V V |
  1
/061+ {rn nomqflmkoifjhgkkjl ngjqfollilmfomnnfi o |
  0
REGION
  5
229
330
21
100
AcDbEntity
  8
0
100
AcDbModelerGeometry
 70
     1
  1
koo nn n o          
  1
ni ^ *+0;:,4 ^ *+0\^ [ nh ^ LR nmqoqnqgmo QK o  
  1
n fqfffffffffffffffj:rooh n:rono 
  1
=0;& {rn {n {rn {rn |
  1
3*2/ {rn {rn {m {o |
  1
,7:33 {rn {rn {rn {l {rn {n |
  1
9><: {rn {rn {k {m {rn {j 90-(>-; ;0*=3: 0*+ |
  1
300/ {rn {rn {i {l |
  1
/3>1:r,*-9><: {rn nooqjloglmnjkifkhf ngjqfollilmfomnnfi o o o n oqolflhoohghkonjhkg o o 90-(>-;@) V V V V |
  1
<0:;8: {rn {i {i {rn {h 90-(>-; {k {rn |
  1
:;8: {rn {g {g {i {f 90-(>-; |
  1
):-+:' {rn {h {no |
  1
:336/,:r<*-): {rn nooqjloglmnjkifkhf ngjqfollilmfomnnfi o o o n mqmilhhfjmhjjfojjn o o n V V |
  1
/061+ {rn nomqhfkinnigmmjlf ngjqfollilmfomnnfi o |
  0
REGION
  5
22A
330
21
100
AcDbEntity
  8
0
100
AcDbModelerGeometry
 70
     1
  1
koo nn n o          
  1
ni ^ *+0;:,4 ^ *+0\^ [ nh ^ LR nmqoqnqgmo QK o  
  1
n fqfffffffffffffffj:rooh n:rono 
  1
=0;& {rn {n {rn {rn |
  1
3*2/ {rn {rn {m {o |
  1
,7:33 {rn {rn {rn {l {rn {n |
  1
9><: {rn {rn {k {m {rn {j 90-(>-; ;0*=3: 0*+ |
  1
300/ {rn {rn {i {l |
  1
/3>1:r,*-9><: {rn nooqjloglmnjkifkhf ngjqfollilmfomnnfi o o o n oqolflhoohghkonjhkg o o 90-(>-;@) V V V V |
  1
<0:;8: {rn {i {i {rn {h 90-(>-; {k {rn |
  1
:;8: {rn {g {g {i {f 90-(>-; |
  1
):-+:' {rn {h {no |
  1
:336/,:r<*-): {rn nooqjloglmnjkifkhf ngjqfollilmfomnnfi o o o n nqhhnijljkllohogii o o n V V |
  1
/061+ {rn nomqlomkgjifgoonfl ngjqfollilmfomnnfi o |
  0
LINE
  5
22B
330
21
100
AcDbEntity
  8
截面层
100
AcDbLine
 10
82.9623860227557
 20
203.0011837279317
 30
0.0
 11
82.83776000244712
 21
203.1956361861142
 31
0.0
  0
LINE
  5
22C
330
21
100
AcDbEntity
  8
截面层
100
AcDbLine
 10
82.9623860227557
 20
203.0011837279317
 30
0.0
 11
83.08701204306521
 21
203.0011837279317
 31
0.0
  0
LINE
  5
22D
330
21
100
AcDbEntity
  8
0
100
AcDbLine
 10
82.83776000244712
 20
203.1956361861142
 30
0.0
 11
86.7278413148167
 21
203.1956361861142
 31
0.0
  0
LINE
  5
22E
330
21
100
AcDbEntity
  8
0
100
AcDbLine
 10
83.08701204306521
 20
203.0011837279317
 30
0.0
 11
86.44370351671687
 21
203.0011837279317
 31
0.0
  0
LINE
  5
22F
330
21
100
AcDbEntity
  8
截面层
100
AcDbLine
 10
86.5857724157672
 20
203.0011837279317
 30
0.0
 11
86.7278413148167
 21
203.1956361861142
 31
0.0
  0
LINE
  5
230
330
21
100
AcDbEntity
  8
截面层
100
AcDbLine
 10
86.44370351671687
 20
203.0011837279317
 30
0.0
 11
86.5857724157672
 21
203.0011837279317
 31
0.0
  0
LINE
  5
231
330
21
100
AcDbEntity
  8
截面层
100
AcDbLine
 10
98.72786039755972
 20
203.0011837279317
 30
0.0
 11
98.58579149851024
 21
203.1956361861142
 31
0.0
  0
LINE
  5
232
330
21
100
AcDbEntity
  8
截面层
100
AcDbLine
 10
98.86992929660989
 20
203.0011837279317
 30
0.0
 11
98.72786039755972
 21
203.0011837279317
 31
0.0
  0
LINE
  5
233
330
21
100
AcDbEntity
  8
0
100
AcDbLine
 10
98.58579149851024
 20
203.1956361861142
 30
0.0
 11
102.4758728108798
 21
203.1956361861142
 31
0.0
  0
LINE
  5
234
330
21
100
AcDbEntity
  8
0
100
AcDbLine
 10
98.86992929660989
 20
203.0011837279317
 30
0.0
 11
102.2266207702617
 21
203.0011837279317
 31
0.0
  0
LINE
  5
235
330
21
100
AcDbEntity
  8
截面层
100
AcDbLine
 10
102.3512467905705
 20
203.0011837279317
 30
0.0
 11
102.4758728108798
 21
203.1956361861142
 31
0.0
  0
LINE
  5
236
330
21
100
AcDbEntity
  8
截面层
100
AcDbLine
 10
102.3512467905705
 20
203.0011837279317
 30
0.0
 11
102.2266207702617
 21
203.0011837279317
 31
0.0
  0
ENDSEC
  0
SECTION
  2
OBJECTS
  0
DICTIONARY
  5
C
330
0
100
AcDbDictionary
281
     1
  3
ACAD_COLOR
350
1C
  3
ACAD_GROUP
350
D
  3
ACAD_LAYOUT
350
1A
  3
ACAD_MATERIAL
350
1B
  3
ACAD_MLEADERSTYLE
350
367
  3
ACAD_MLINESTYLE
350
17
  3
ACAD_PLOTSETTINGS
350
19
  3
ACAD_PLOTSTYLENAME
350
E
  3
ACAD_SCALELIST
350
345
  3
ACAD_TABLESTYLE
350
343
  3
ACAD_VISUALSTYLE
350
332
  3
ACDB_RECOMPOSE_DATA
350
383
  3
AcDbVariableDictionary
350
379
  3
DWGPROPS
350
384
  3
lxx_dict
350
36D
  0
DICTIONARY
  5
BF
330
2
100
AcDbDictionary
280
     1
281
     1
  3
ACAD_LAYERSTATES
360
C0
  0
DICTIONARY
  5
36F
330
10
100
AcDbDictionary
280
     1
281
     1
  3
ADSK_XREC_LAYER_RECONCILED
360
370
  0
DICTIONARY
  5
371
330
B7
100
AcDbDictionary
280
     1
281
     1
  3
ADSK_XREC_LAYER_RECONCILED
360
372
  0
DICTIONARY
  5
373
330
B8
100
AcDbDictionary
280
     1
281
     1
  3
ADSK_XREC_LAYER_RECONCILED
360
374
  0
DICTIONARY
  5
375
330
BA
100
AcDbDictionary
280
     1
281
     1
  3
ADSK_XREC_LAYER_RECONCILED
360
376
  0
DICTIONARY
  5
377
330
BB
100
AcDbDictionary
280
     1
281
     1
  3
ADSK_XREC_LAYER_RECONCILED
360
378
  0
DICTIONARY
  5
1DB
330
1DA
100
AcDbDictionary
280
     1
281
     1
  3
ACAD_DIMASSOC
360
1DC
  0
DICTIONARY
  5
1DE
330
1DD
100
AcDbDictionary
280
     1
281
     1
  3
ACAD_DIMASSOC
360
1DF
  0
DICTIONARY
  5
1F7
330
1F6
100
AcDbDictionary
280
     1
281
     1
  3
ACAD_DIMASSOC
360
1F8
  0
DICTIONARY
  5
1FE
330
1FD
100
AcDbDictionary
280
     1
281
     1
  3
ACAD_DIMASSOC
360
1FF
  0
DICTIONARY
  5
1C
102
{ACAD_REACTORS
330
C
102
}
330
C
100
AcDbDictionary
281
     1
  0
DICTIONARY
  5
D
102
{ACAD_REACTORS
330
C
102
}
330
C
100
AcDbDictionary
281
     1
  0
DICTIONARY
  5
1A
102
{ACAD_REACTORS
330
C
102
}
330
C
100
AcDbDictionary
281
     1
  3
Model
350
24
  3
布局1
350
20
  3
布局2
350
28
  0
DICTIONARY
  5
1B
102
{ACAD_REACTORS
330
C
102
}
330
C
100
AcDbDictionary
281
     1
  3
ByBlock
350
322
  3
ByLayer
350
31A
  3
Global
350
32A
  0
DICTIONARY
  5
367
102
{ACAD_REACTORS
330
C
102
}
330
C
100
AcDbDictionary
281
     1
  3
Standard
350
368
  0
DICTIONARY
  5
17
102
{ACAD_REACTORS
330
C
102
}
330
C
100
AcDbDictionary
281
     1
  3
Standard
350
18
  0
DICTIONARY
  5
19
102
{ACAD_REACTORS
330
C
102
}
330
C
100
AcDbDictionary
281
     1
  0
ACDBDICTIONARYWDFLT
  5
E
102
{ACAD_REACTORS
330
C
102
}
330
C
100
AcDbDictionary
281
     1
  3
Normal
350
F
100
AcDbDictionaryWithDefault
340
F
  0
DICTIONARY
  5
345
102
{ACAD_REACTORS
330
C
102
}
330
C
100
AcDbDictionary
281
     1
  3
A0
350
346
  3
A1
350
347
  3
A2
350
348
  3
A3
350
349
  3
A4
350
34A
  3
A5
350
34B
  3
A6
350
34C
  3
A7
350
34D
  3
A8
350
34E
  3
A9
350
34F
  3
B0
350
350
  3
B1
350
351
  3
B2
350
352
  3
B3
350
353
  3
B4
350
354
  3
B5
350
355
  3
B6
350
356
  3
B7
350
357
  3
B8
350
358
  3
B9
350
359
  3
C0
350
35A
  3
C1
350
35B
  3
C2
350
35C
  3
C3
350
35D
  3
C4
350
35E
  3
C5
350
35F
  3
C6
350
360
  3
C7
350
361
  3
C8
350
362
  3
C9
350
363
  3
D0
350
364
  3
D1
350
365
  3
D2
350
366
  0
DICTIONARY
  5
343
102
{ACAD_REACTORS
330
C
102
}
330
C
100
AcDbDictionary
281
     1
  3
Standard
350
344
  0
DICTIONARY
  5
332
102
{ACAD_REACTORS
330
C
102
}
330
C
100
AcDbDictionary
281
     1
  3
2dWireframe
350
338
  3
3D Hidden
350
33A
  3
3dWireframe
350
339
  3
Basic
350
337
  3
Brighten
350
33E
  3
ColorChange
350
342
  3
Conceptual
350
33B
  3
Dim
350
33D
  3
Facepattern
350
341
  3
Flat
350
333
  3
FlatWithEdges
350
334
  3
Gouraud
350
335
  3
GouraudWithEdges
350
336
  3
Linepattern
350
340
  3
Realistic
350
33C
  3
Thicken
350
33F
  0
XRECORD
  5
383
102
{ACAD_REACTORS
330
C
102
}
330
C
100
AcDbXrecord
280
     1
 90
        1
330
344
  0
DICTIONARY
  5
379
102
{ACAD_REACTORS
330
C
102
}
330
C
100
AcDbDictionary
281
     1
  3
CANNOSCALE
350
37C
  3
CMLEADERSTYLE
350
37B
  3
CTABLESTYLE
350
37A
  3
DIMASSOC
350
380
  3
HIDETEXT
350
37F
  3
INDEXCTL
350
37E
  3
SORTENTS
350
37D
  0
XRECORD
  5
384
102
{ACAD_REACTORS
330
C
102
}
330
C
100
AcDbXrecord
280
     1
  1
DWGPROPS COOKIE
  2

  3

  4

  6

  7

  8
Administrator
  9

300
=
301
=
302
=
303
=
304
=
305
=
306
=
307
=
308
=
309
=
 40
0.0016318518518519
 41
2455768.649369028
 42
2458649.343840405
  1

 90
        0
  0
DICTIONARY
  5
36D
102
{ACAD_REACTORS
330
C
102
}
330
C
100
AcDbDictionary
281
     1
  3
lxx_dimth
350
36E
  0
DICTIONARY
  5
C0
102
{ACAD_REACTORS
330
BF
102
}
330
BF
100
AcDbDictionary
281
     1
  0
XRECORD
  5
370
102
{ACAD_REACTORS
330
36F
102
}
330
36F
100
AcDbXrecord
280
     1
290
     1
  0
XRECORD
  5
372
102
{ACAD_REACTORS
330
371
102
}
330
371
100
AcDbXrecord
280
     1
290
     1
  0
XRECORD
  5
374
102
{ACAD_REACTORS
330
373
102
}
330
373
100
AcDbXrecord
280
     1
290
     1
  0
XRECORD
  5
376
102
{ACAD_REACTORS
330
375
102
}
330
375
100
AcDbXrecord
280
     1
290
     1
  0
XRECORD
  5
378
102
{ACAD_REACTORS
330
377
102
}
330
377
100
AcDbXrecord
280
     1
290
     1
  0
DIMASSOC
  5
1DC
102
{ACAD_REACTORS
330
1DB
102
}
330
1DB
100
AcDbDimAssoc
330
1DA
 90
        2
 70
     0
 71
     0
  1
AcDbOsnapPointRef
 72
     5
331
223
 73
     2
 91
        5
 40
3.141592653589792
 10
0.0
 20
0.0
 30
0.0
 75
     0
  0
DIMASSOC
  5
1DF
102
{ACAD_REACTORS
330
1DE
102
}
330
1DE
100
AcDbDimAssoc
330
1DD
 90
        2
 70
     0
 71
     0
  1
AcDbOsnapPointRef
 72
    13
331
213
 73
     2
 91
        0
 40
0.0
 10
0.0
 20
0.0
 30
2.000000000000000E+50
 75
     0
  0
DIMASSOC
  5
1F8
102
{ACAD_REACTORS
330
1F7
102
}
330
1F7
100
AcDbDimAssoc
330
1F6
 90
        2
 70
     0
 71
     0
  1
AcDbOsnapPointRef
 72
     3
331
224
 73
     2
 91
        6
 40
0.0
 10
0.0
 20
0.0
 30
0.0
 75
     0
  0
DIMASSOC
  5
1FF
102
{ACAD_REACTORS
330
1FE
102
}
330
1FE
100
AcDbDimAssoc
330
1FD
 90
        2
 70
     0
 71
     0
  1
AcDbOsnapPointRef
 72
     3
331
209
 73
     2
 91
        0
 40
0.0
 10
0.0
 20
0.0
 30
0.0
 75
     0
  0
LAYOUT
  5
24
102
{ACAD_XDICTIONARY
360
387
102
}
102
{ACAD_REACTORS
330
1A
102
}
330
1A
100
AcDbPlotSettings
  1

  2
Adobe PDF
  4
A4
  6

 40
3.174999952316283
 41
3.174999952316283
 42
3.175003051757812
 43
3.17498779296875
 44
209.9733276367186
 45
297.0318298339844
 46
17.24
 47
0.0
 48
24.37500171386887
 49
26.70913474425015
140
170.7114845919996
141
278.1952631570403
142
1.0
143
0.8651594011023608
 70
 11956
 72
     1
 73
     0
 74
     4
  7

 75
     0
147
1.155856364417735
148
-24.37500171386887
149
-26.70913474425015
100
AcDbLayout
  1
Model
 70
     1
 71
     0
 10
0.0
 20
0.0
 11
12.0
 21
9.0
 12
0.0
 22
0.0
 32
0.0
 14
0.0
 24
0.0
 34
0.0
 15
0.0
 25
0.0
 35
0.0
146
0.0
 13
0.0
 23
0.0
 33
0.0
 16
1.0
 26
0.0
 36
0.0
 17
0.0
 27
1.0
 37
0.0
 76
     0
330
21
331
317
  0
LAYOUT
  5
20
102
{ACAD_XDICTIONARY
360
385
102
}
102
{ACAD_REACTORS
330
1A
102
}
330
1A
100
AcDbPlotSettings
  1

  2
FX DocuPrint 255-AP
  4

  6

 40
0.0
 41
0.0
 42
0.0
 43
0.0
 44
0.0
 45
0.0
 46
0.0
 47
0.0
 48
0.0
 49
0.0
140
0.0
141
0.0
142
1.0
143
1.0
 70
   688
 72
     0
 73
     0
 74
     5
  7

 75
    16
147
1.0
148
0.0
149
0.0
100
AcDbLayout
  1
布局1
 70
     1
 71
     1
 10
0.0
 20
0.0
 11
420.0
 21
297.0
 12
0.0
 22
0.0
 32
0.0
 14
1.000000000000000E+20
 24
1.000000000000000E+20
 34
1.000000000000000E+20
 15
-1.000000000000000E+20
 25
-1.000000000000000E+20
 35
-1.000000000000000E+20
146
0.0
 13
0.0
 23
0.0
 33
0.0
 16
1.0
 26
0.0
 36
0.0
 17
0.0
 27
1.0
 37
0.0
 76
     0
330
1D
  0
LAYOUT
  5
28
102
{ACAD_XDICTIONARY
360
389
102
}
102
{ACAD_REACTORS
330
1A
102
}
330
1A
100
AcDbPlotSettings
  1

  2
FX DocuPrint 255-AP
  4

  6

 40
0.0
 41
0.0
 42
0.0
 43
0.0
 44
0.0
 45
0.0
 46
0.0
 47
0.0
 48
0.0
 49
0.0
140
0.0
141
0.0
142
1.0
143
1.0
 70
   688
 72
     0
 73
     0
 74
     5
  7

 75
    16
147
1.0
148
0.0
149
0.0
100
AcDbLayout
  1
布局2
 70
     1
 71
     2
 10
0.0
 20
0.0
 11
12.0
 21
9.0
 12
0.0
 22
0.0
 32
0.0
 14
0.0
 24
0.0
 34
0.0
 15
0.0
 25
0.0
 35
0.0
146
0.0
 13
0.0
 23
0.0
 33
0.0
 16
1.0
 26
0.0
 36
0.0
 17
0.0
 27
1.0
 37
0.0
 76
     0
330
25
  0
MATERIAL
  5
322
102
{ACAD_XDICTIONARY
360
323
102
}
102
{ACAD_REACTORS
330
1B
102
}
330
1B
100
AcDbMaterial
  1
ByBlock
 72
     0
 43
0.0008202099737533
 43
0.0
 43
0.0
 43
0.0
 43
0.0
 43
0.0008202099737533
 43
0.0
 43
0.0
 43
0.0
 43
0.0
 43
1.0
 43
0.0
 43
0.0
 43
0.0
 43
0.0
 43
1.0
 77
     0
 47
0.0008202099737533
 47
0.0
 47
0.0
 47
0.0
 47
0.0
 47
0.0008202099737533
 47
0.0
 47
0.0
 47
0.0
 47
0.0
 47
1.0
 47
0.0
 47
0.0
 47
0.0
 47
0.0
 47
1.0
171
     0
 49
0.0008202099737533
 49
0.0
 49
0.0
 49
0.0
 49
0.0
 49
0.0008202099737533
 49
0.0
 49
0.0
 49
0.0
 49
0.0
 49
1.0
 49
0.0
 49
0.0
 49
0.0
 49
0.0
 49
1.0
175
     0
142
0.0008202099737533
142
0.0
142
0.0
142
0.0
142
0.0
142
0.0008202099737533
142
0.0
142
0.0
142
0.0
142
0.0
142
1.0
142
0.0
142
0.0
142
0.0
142
0.0
142
1.0
179
     0
144
0.0008202099737533
144
0.0
144
0.0
144
0.0
144
0.0
144
0.0008202099737533
144
0.0
144
0.0
144
0.0
144
0.0
144
1.0
144
0.0
144
0.0
144
0.0
144
0.0
144
1.0
147
0.0008202099737533
147
0.0
147
0.0
147
0.0
147
0.0
147
0.0008202099737533
147
0.0
147
0.0
147
0.0
147
0.0
147
1.0
147
0.0
147
0.0
147
0.0
147
0.0
147
1.0
  0
MATERIAL
  5
31A
102
{ACAD_XDICTIONARY
360
31B
102
}
102
{ACAD_REACTORS
330
1B
102
}
330
1B
100
AcDbMaterial
  1
ByLayer
 72
     0
 43
0.0008202099737533
 43
0.0
 43
0.0
 43
0.0
 43
0.0
 43
0.0008202099737533
 43
0.0
 43
0.0
 43
0.0
 43
0.0
 43
1.0
 43
0.0
 43
0.0
 43
0.0
 43
0.0
 43
1.0
 77
     0
 47
0.0008202099737533
 47
0.0
 47
0.0
 47
0.0
 47
0.0
 47
0.0008202099737533
 47
0.0
 47
0.0
 47
0.0
 47
0.0
 47
1.0
 47
0.0
 47
0.0
 47
0.0
 47
0.0
 47
1.0
171
     0
 49
0.0008202099737533
 49
0.0
 49
0.0
 49
0.0
 49
0.0
 49
0.0008202099737533
 49
0.0
 49
0.0
 49
0.0
 49
0.0
 49
1.0
 49
0.0
 49
0.0
 49
0.0
 49
0.0
 49
1.0
175
     0
142
0.0008202099737533
142
0.0
142
0.0
142
0.0
142
0.0
142
0.0008202099737533
142
0.0
142
0.0
142
0.0
142
0.0
142
1.0
142
0.0
142
0.0
142
0.0
142
0.0
142
1.0
179
     0
144
0.0008202099737533
144
0.0
144
0.0
144
0.0
144
0.0
144
0.0008202099737533
144
0.0
144
0.0
144
0.0
144
0.0
144
1.0
144
0.0
144
0.0
144
0.0
144
0.0
144
1.0
147
0.0008202099737533
147
0.0
147
0.0
147
0.0
147
0.0
147
0.0008202099737533
147
0.0
147
0.0
147
0.0
147
0.0
147
1.0
147
0.0
147
0.0
147
0.0
147
0.0
147
1.0
  0
MATERIAL
  5
32A
102
{ACAD_XDICTIONARY
360
32B
102
}
102
{ACAD_REACTORS
330
1B
102
}
330
1B
100
AcDbMaterial
  1
Global
 72
     0
 43
0.0008202099737533
 43
0.0
 43
0.0
 43
0.0
 43
0.0
 43
0.0008202099737533
 43
0.0
 43
0.0
 43
0.0
 43
0.0
 43
1.0
 43
0.0
 43
0.0
 43
0.0
 43
0.0
 43
1.0
 77
     0
 47
0.0008202099737533
 47
0.0
 47
0.0
 47
0.0
 47
0.0
 47
0.0008202099737533
 47
0.0
 47
0.0
 47
0.0
 47
0.0
 47
1.0
 47
0.0
 47
0.0
 47
0.0
 47
0.0
 47
1.0
171
     0
 49
0.0008202099737533
 49
0.0
 49
0.0
 49
0.0
 49
0.0
 49
0.0008202099737533
 49
0.0
 49
0.0
 49
0.0
 49
0.0
 49
1.0
 49
0.0
 49
0.0
 49
0.0
 49
0.0
 49
1.0
175
     0
142
0.0008202099737533
142
0.0
142
0.0
142
0.0
142
0.0
142
0.0008202099737533
142
0.0
142
0.0
142
0.0
142
0.0
142
1.0
142
0.0
142
0.0
142
0.0
142
0.0
142
1.0
179
     0
144
0.0008202099737533
144
0.0
144
0.0
144
0.0
144
0.0
144
0.0008202099737533
144
0.0
144
0.0
144
0.0
144
0.0
144
1.0
144
0.0
144
0.0
144
0.0
144
0.0
144
1.0
147
0.0008202099737533
147
0.0
147
0.0
147
0.0
147
0.0
147
0.0008202099737533
147
0.0
147
0.0
147
0.0
147
0.0
147
1.0
147
0.0
147
0.0
147
0.0
147
0.0
147
1.0
  0
MLEADERSTYLE
  5
368
102
{ACAD_REACTORS
330
367
102
}
330
367
100
AcDbMLeaderStyle
170
     2
171
     1
172
     0
 90
        2
 40
0.0
 41
0.0
173
     1
 91
-1056964608
340
14
 92
       -2
290
     1
 42
2.0
291
     1
 43
0.36
  3
Standard
 44
4.0
300

342
11
174
     1
178
     6
175
     1
176
     0
 93
-1056964608
 45
4.0
292
     0
297
     0
 46
4.0
 94
-1056964608
 47
1.0
 49
1.0
140
1.0
293
     1
141
0.0
294
     1
177
     0
142
1.0
295
     0
296
     0
143
0.125
1001
ACAD_MLEADERVER
1070
     2
  0
MLINESTYLE
  5
18
102
{ACAD_REACTORS
330
17
102
}
330
17
100
AcDbMlineStyle
  2
STANDARD
 70
     0
  3

 62
   256
 51
90.0
 52
90.0
 71
     2
 49
0.5
 62
   256
  6
BYLAYER
 49
-0.5
 62
   256
  6
BYLAYER
  0
ACDBPLACEHOLDER
  5
F
102
{ACAD_REACTORS
330
E
102
}
330
E
  0
SCALE
  5
346
102
{ACAD_REACTORS
330
345
102
}
330
345
100
AcDbScale
 70
     0
300
1:1
140
1.0
141
1.0
290
     1
  0
SCALE
  5
347
102
{ACAD_REACTORS
330
345
102
}
330
345
100
AcDbScale
 70
     0
300
1:2
140
1.0
141
2.0
290
     0
  0
SCALE
  5
348
102
{ACAD_REACTORS
330
345
102
}
330
345
100
AcDbScale
 70
     0
300
1:4
140
1.0
141
4.0
290
     0
  0
SCALE
  5
349
102
{ACAD_REACTORS
330
345
102
}
330
345
100
AcDbScale
 70
     0
300
1:5
140
1.0
141
5.0
290
     0
  0
SCALE
  5
34A
102
{ACAD_REACTORS
330
345
102
}
330
345
100
AcDbScale
 70
     0
300
1:8
140
1.0
141
8.0
290
     0
  0
SCALE
  5
34B
102
{ACAD_REACTORS
330
345
102
}
330
345
100
AcDbScale
 70
     0
300
1:10
140
1.0
141
10.0
290
     0
  0
SCALE
  5
34C
102
{ACAD_REACTORS
330
345
102
}
330
345
100
AcDbScale
 70
     0
300
1:16
140
1.0
141
16.0
290
     0
  0
SCALE
  5
34D
102
{ACAD_REACTORS
330
345
102
}
330
345
100
AcDbScale
 70
     0
300
1:20
140
1.0
141
20.0
290
     0
  0
SCALE
  5
34E
102
{ACAD_REACTORS
330
345
102
}
330
345
100
AcDbScale
 70
     0
300
1:30
140
1.0
141
30.0
290
     0
  0
SCALE
  5
34F
102
{ACAD_REACTORS
330
345
102
}
330
345
100
AcDbScale
 70
     0
300
1:40
140
1.0
141
40.0
290
     0
  0
SCALE
  5
350
102
{ACAD_REACTORS
330
345
102
}
330
345
100
AcDbScale
 70
     0
300
1:50
140
1.0
141
50.0
290
     0
  0
SCALE
  5
351
102
{ACAD_REACTORS
330
345
102
}
330
345
100
AcDbScale
 70
     0
300
1:100
140
1.0
141
100.0
290
     0
  0
SCALE
  5
352
102
{ACAD_REACTORS
330
345
102
}
330
345
100
AcDbScale
 70
     0
300
2:1
140
2.0
141
1.0
290
     0
  0
SCALE
  5
353
102
{ACAD_REACTORS
330
345
102
}
330
345
100
AcDbScale
 70
     0
300
4:1
140
4.0
141
1.0
290
     0
  0
SCALE
  5
354
102
{ACAD_REACTORS
330
345
102
}
330
345
100
AcDbScale
 70
     0
300
8:1
140
8.0
141
1.0
290
     0
  0
SCALE
  5
355
102
{ACAD_REACTORS
330
345
102
}
330
345
100
AcDbScale
 70
     0
300
10:1
140
10.0
141
1.0
290
     0
  0
SCALE
  5
356
102
{ACAD_REACTORS
330
345
102
}
330
345
100
AcDbScale
 70
     0
300
100:1
140
100.0
141
1.0
290
     0
  0
SCALE
  5
357
102
{ACAD_REACTORS
330
345
102
}
330
345
100
AcDbScale
 70
     0
300
1/128" = 1'-0"
140
0.0078125
141
12.0
290
     0
  0
SCALE
  5
358
102
{ACAD_REACTORS
330
345
102
}
330
345
100
AcDbScale
 70
     0
300
1/64" = 1'-0"
140
0.015625
141
12.0
290
     0
  0
SCALE
  5
359
102
{ACAD_REACTORS
330
345
102
}
330
345
100
AcDbScale
 70
     0
300
1/32" = 1'-0"
140
0.03125
141
12.0
290
     0
  0
SCALE
  5
35A
102
{ACAD_REACTORS
330
345
102
}
330
345
100
AcDbScale
 70
     0
300
1/16" = 1'-0"
140
0.0625
141
12.0
290
     0
  0
SCALE
  5
35B
102
{ACAD_REACTORS
330
345
102
}
330
345
100
AcDbScale
 70
     0
300
3/32" = 1'-0"
140
0.09375
141
12.0
290
     0
  0
SCALE
  5
35C
102
{ACAD_REACTORS
330
345
102
}
330
345
100
AcDbScale
 70
     0
300
1/8" = 1'-0"
140
0.125
141
12.0
290
     0
  0
SCALE
  5
35D
102
{ACAD_REACTORS
330
345
102
}
330
345
100
AcDbScale
 70
     0
300
3/16" = 1'-0"
140
0.1875
141
12.0
290
     0
  0
SCALE
  5
35E
102
{ACAD_REACTORS
330
345
102
}
330
345
100
AcDbScale
 70
     0
300
1/4" = 1'-0"
140
0.25
141
12.0
290
     0
  0
SCALE
  5
35F
102
{ACAD_REACTORS
330
345
102
}
330
345
100
AcDbScale
 70
     0
300
3/8" = 1'-0"
140
0.375
141
12.0
290
     0
  0
SCALE
  5
360
102
{ACAD_REACTORS
330
345
102
}
330
345
100
AcDbScale
 70
     0
300
1/2" = 1'-0"
140
0.5
141
12.0
290
     0
  0
SCALE
  5
361
102
{ACAD_REACTORS
330
345
102
}
330
345
100
AcDbScale
 70
     0
300
3/4" = 1'-0"
140
0.75
141
12.0
290
     0
  0
SCALE
  5
362
102
{ACAD_REACTORS
330
345
102
}
330
345
100
AcDbScale
 70
     0
300
1" = 1'-0"
140
1.0
141
12.0
290
     0
  0
SCALE
  5
363
102
{ACAD_REACTORS
330
345
102
}
330
345
100
AcDbScale
 70
     0
300
1-1/2" = 1'-0"
140
1.5
141
12.0
290
     0
  0
SCALE
  5
364
102
{ACAD_REACTORS
330
345
102
}
330
345
100
AcDbScale
 70
     0
300
3" = 1'-0"
140
3.0
141
12.0
290
     0
  0
SCALE
  5
365
102
{ACAD_REACTORS
330
345
102
}
330
345
100
AcDbScale
 70
     0
300
6" = 1'-0"
140
6.0
141
12.0
290
     0
  0
SCALE
  5
366
102
{ACAD_REACTORS
330
345
102
}
330
345
100
AcDbScale
 70
     0
300
1'-0" = 1'-0"
140
12.0
141
12.0
290
     0
  0
TABLESTYLE
  5
344
102
{ACAD_XDICTIONARY
360
381
102
}
102
{ACAD_REACTORS
330
343
102
}
330
343
100
AcDbTableStyle
  3
Standard
 70
     0
 71
     0
 40
1.5
 41
1.5
280
     0
281
     0
  7
Standard
140
4.5
170
     2
 62
     0
 63
     7
283
     0
274
    -2
284
     1
 64
     0
275
    -2
285
     1
 65
     0
276
    -2
286
     1
 66
     0
277
    -2
287
     1
 67
     0
278
    -2
288
     1
 68
     0
279
    -2
289
     1
 69
     0
  7
Standard
140
6.0
170
     5
 62
     0
 63
     7
283
     0
274
    -2
284
     1
 64
     0
275
    -2
285
     1
 65
     0
276
    -2
286
     1
 66
     0
277
    -2
287
     1
 67
     0
278
    -2
288
     1
 68
     0
279
    -2
289
     1
 69
     0
  7
Standard
140
4.5
170
     5
 62
     0
 63
     7
283
     0
274
    -2
284
     1
 64
     0
275
    -2
285
     1
 65
     0
276
    -2
286
     1
 66
     0
277
    -2
287
     1
 67
     0
278
    -2
288
     1
 68
     0
279
    -2
289
     1
 69
     0
  0
VISUALSTYLE
  5
338
102
{ACAD_REACTORS
330
332
102
}
330
332
100
AcDbVisualStyle
  2
2dWireframe
 70
     4
 71
     0
 72
     2
 73
     0
 90
        0
 40
-0.6
 41
-30.0
 62
     5
 63
     7
 74
     1
 91
        4
 64
     7
 65
   257
 75
     1
175
     1
 42
1.0
 92
        0
 66
   257
 43
1.0
 76
     1
 77
     6
 78
     2
 67
     7
 79
     5
170
     0
171
     0
290
     0
174
     0
 93
        1
 44
0.0
173
     0
291
     0
 45
0.0
1001
ACAD
1000
AcDbSavedByObjectVersion
1070
     0
  0
VISUALSTYLE
  5
33A
102
{ACAD_REACTORS
330
332
102
}
330
332
100
AcDbVisualStyle
  2
3D Hidden
 70
     6
 71
     1
 72
     2
 73
     2
 90
        0
 40
-0.6
 41
-30.0
 62
     5
 63
     7
 74
     2
 91
        2
 64
     7
 65
   257
 75
     2
175
     1
 42
40.0
 92
        0
 66
   257
 43
1.0
 76
     1
 77
     6
 78
     2
 67
     7
 79
     3
170
     0
171
     0
290
     0
174
     0
 93
        1
 44
0.0
173
     0
291
     0
 45
0.0
1001
ACAD
1000
AcDbSavedByObjectVersion
1070
     0
  0
VISUALSTYLE
  5
339
102
{ACAD_REACTORS
330
332
102
}
330
332
100
AcDbVisualStyle
  2
3dWireframe
 70
     5
 71
     0
 72
     2
 73
     0
 90
        0
 40
-0.6
 41
-30.0
 62
     5
 63
     7
 74
     1
 91
        4
 64
     7
 65
   257
 75
     1
175
     1
 42
1.0
 92
        0
 66
   257
 43
1.0
 76
     1
 77
     6
 78
     2
 67
     7
 79
     5
170
     0
171
     0
290
     0
174
     0
 93
        1
 44
0.0
173
     0
291
     0
 45
0.0
1001
ACAD
1000
AcDbSavedByObjectVersion
1070
     0
  0
VISUALSTYLE
  5
337
102
{ACAD_REACTORS
330
332
102
}
330
332
100
AcDbVisualStyle
  2
Basic
 70
     7
 71
     1
 72
     0
 73
     1
 90
        0
 40
-0.6
 41
-30.0
 62
     5
 63
     7
 74
     0
 91
        4
 64
     7
 65
   257
 75
     1
175
     1
 42
1.0
 92
        8
 66
     7
 43
1.0
 76
     1
 77
     6
 78
     2
 67
     7
 79
     5
170
     0
171
     0
290
     0
174
     0
 93
        1
 44
0.0
173
     0
291
     1
 45
0.0
1001
ACAD
1000
AcDbSavedByObjectVersion
1070
     0
  0
VISUALSTYLE
  5
33E
102
{ACAD_REACTORS
330
332
102
}
330
332
100
AcDbVisualStyle
  2
Brighten
 70
    12
 71
     2
 72
     2
 73
     0
 90
        0
 40
-0.6
 41
-30.0
 62
     5
 63
     7
 74
     1
 91
        4
 64
     7
 65
   257
 75
     1
175
     1
 42
1.0
 92
        8
 66
     7
 43
1.0
 76
     1
 77
     6
 78
     2
 67
     7
 79
     5
170
     0
171
     0
290
     0
174
     0
 93
        1
 44
50.0
173
     0
291
     1
 45
0.0
1001
ACAD
1000
AcDbSavedByObjectVersion
1070
     0
  0
VISUALSTYLE
  5
342
102
{ACAD_REACTORS
330
332
102
}
330
332
100
AcDbVisualStyle
  2
ColorChange
 70
    16
 71
     2
 72
     2
 73
     3
 90
        0
 40
-0.6
 41
-30.0
 62
     5
 63
     8
 74
     1
 91
        4
 64
     7
 65
   257
 75
     1
175
     1
 42
1.0
 92
        8
 66
     8
 43
1.0
 76
     1
 77
     6
 78
     2
 67
     7
 79
     5
170
     0
171
     0
290
     0
174
     0
 93
        1
 44
0.0
173
     0
291
     1
 45
0.0
1001
ACAD
1000
AcDbSavedByObjectVersion
1070
     0
  0
VISUALSTYLE
  5
33B
102
{ACAD_REACTORS
330
332
102
}
330
332
100
AcDbVisualStyle
  2
Conceptual
 70
     9
 71
     3
 72
     2
 73
     0
 90
        0
 40
-0.6
 41
-30.0
 62
     5
 63
     7
 74
     2
 91
        2
 64
     7
 65
   257
 75
     1
175
     1
 42
40.0
 92
        8
 66
     7
 43
1.0
 76
     1
 77
     6
 78
     2
 67
     7
 79
     3
170
     0
171
     0
290
     0
174
     0
 93
        1
 44
0.0
173
     0
291
     0
 45
0.0
1001
ACAD
1000
AcDbSavedByObjectVersion
1070
     0
  0
VISUALSTYLE
  5
33D
102
{ACAD_REACTORS
330
332
102
}
330
332
100
AcDbVisualStyle
  2
Dim
 70
    11
 71
     2
 72
     2
 73
     0
 90
        0
 40
-0.6
 41
-30.0
 62
     5
 63
     7
 74
     1
 91
        4
 64
     7
 65
   257
 75
     1
175
     1
 42
1.0
 92
        8
 66
     7
 43
1.0
 76
     1
 77
     6
 78
     2
 67
     7
 79
     5
170
     0
171
     0
290
     0
174
     0
 93
        1
 44
-50.0
173
     0
291
     1
 45
0.0
1001
ACAD
1000
AcDbSavedByObjectVersion
1070
     0
  0
VISUALSTYLE
  5
341
102
{ACAD_REACTORS
330
332
102
}
330
332
100
AcDbVisualStyle
  2
Facepattern
 70
    15
 71
     2
 72
     2
 73
     0
 90
        0
 40
-0.6
 41
-30.0
 62
     5
 63
     7
 74
     1
 91
        4
 64
     7
 65
   257
 75
     1
175
     1
 42
1.0
 92
        8
 66
     7
 43
1.0
 76
     1
 77
     6
 78
     2
 67
     7
 79
     5
170
     0
171
     0
290
     0
174
     0
 93
        1
 44
0.0
173
     0
291
     1
 45
0.0
1001
ACAD
1000
AcDbSavedByObjectVersion
1070
     0
  0
VISUALSTYLE
  5
333
102
{ACAD_REACTORS
330
332
102
}
330
332
100
AcDbVisualStyle
  2
Flat
 70
     0
 71
     2
 72
     1
 73
     1
 90
        2
 40
-0.6
 41
30.0
 62
     5
 63
     7
 74
     0
 91
        4
 64
     7
 65
   257
 75
     1
175
     1
 42
1.0
 92
        8
 66
     7
 43
1.0
 76
     1
 77
     6
 78
     2
 67
     7
 79
     5
170
     0
171
     0
290
     0
174
     0
 93
       13
 44
0.0
173
     0
291
     1
 45
0.0
1001
ACAD
1000
AcDbSavedByObjectVersion
1070
     0
  0
VISUALSTYLE
  5
334
102
{ACAD_REACTORS
330
332
102
}
330
332
100
AcDbVisualStyle
  2
FlatWithEdges
 70
     1
 71
     2
 72
     1
 73
     1
 90
        2
 40
-0.6
 41
30.0
 62
     5
 63
     7
 74
     1
 91
        4
 64
     7
 65
   257
 75
     1
175
     1
 42
1.0
 92
        0
 66
   257
 43
1.0
 76
     1
 77
     6
 78
     2
 67
     7
 79
     5
170
     0
171
     0
290
     0
174
     0
 93
       13
 44
0.0
173
     0
291
     1
 45
0.0
1001
ACAD
1000
AcDbSavedByObjectVersion
1070
     0
  0
VISUALSTYLE
  5
335
102
{ACAD_REACTORS
330
332
102
}
330
332
100
AcDbVisualStyle
  2
Gouraud
 70
     2
 71
     2
 72
     2
 73
     1
 90
        2
 40
-0.6
 41
30.0
 62
     5
 63
     7
 74
     0
 91
        4
 64
     7
 65
   257
 75
     1
175
     1
 42
1.0
 92
        0
 66
     7
 43
1.0
 76
     1
 77
     6
 78
     2
 67
     7
 79
     5
170
     0
171
     0
290
     0
174
     0
 93
       13
 44
0.0
173
     0
291
     1
 45
0.0
1001
ACAD
1000
AcDbSavedByObjectVersion
1070
     0
  0
VISUALSTYLE
  5
336
102
{ACAD_REACTORS
330
332
102
}
330
332
100
AcDbVisualStyle
  2
GouraudWithEdges
 70
     3
 71
     2
 72
     2
 73
     1
 90
        2
 40
-0.6
 41
30.0
 62
     5
 63
     7
 74
     1
 91
        4
 64
     7
 65
   257
 75
     1
175
     1
 42
1.0
 92
        0
 66
   257
 43
1.0
 76
     1
 77
     6
 78
     2
 67
     7
 79
     5
170
     0
171
     0
290
     0
174
     0
 93
       13
 44
0.0
173
     0
291
     1
 45
0.0
1001
ACAD
1000
AcDbSavedByObjectVersion
1070
     0
  0
VISUALSTYLE
  5
340
102
{ACAD_REACTORS
330
332
102
}
330
332
100
AcDbVisualStyle
  2
Linepattern
 70
    14
 71
     2
 72
     2
 73
     0
 90
        0
 40
-0.6
 41
-30.0
 62
     5
 63
     7
 74
     1
 91
        4
 64
     7
 65
   257
 75
     7
175
     7
 42
1.0
 92
        8
 66
     7
 43
1.0
 76
     1
 77
     6
 78
     2
 67
     7
 79
     5
170
     0
171
     0
290
     0
174
     0
 93
        1
 44
0.0
173
     0
291
     1
 45
0.0
1001
ACAD
1000
AcDbSavedByObjectVersion
1070
     0
  0
VISUALSTYLE
  5
33C
102
{ACAD_REACTORS
330
332
102
}
330
332
100
AcDbVisualStyle
  2
Realistic
 70
     8
 71
     2
 72
     2
 73
     0
 90
        0
 40
-0.6
 41
-30.0
 62
     5
 63
     7
 74
     1
 91
        0
 64
     7
 65
   257
 75
     1
175
     1
 42
1.0
 92
        8
 66
     8
 43
1.0
 76
     1
 77
     6
 78
     2
 67
     7
 79
     5
170
     0
171
     0
290
     0
174
     0
 93
       13
 44
0.0
173
     0
291
     0
 45
0.0
1001
ACAD
1000
AcDbSavedByObjectVersion
1070
     0
  0
VISUALSTYLE
  5
33F
102
{ACAD_REACTORS
330
332
102
}
330
332
100
AcDbVisualStyle
  2
Thicken
 70
    13
 71
     2
 72
     2
 73
     0
 90
        0
 40
-0.6
 41
-30.0
 62
     5
 63
     7
 74
     1
 91
        4
 64
     7
 65
   257
 75
     1
175
     1
 42
1.0
 92
       12
 66
     7
 43
1.0
 76
     1
 77
     6
 78
     2
 67
     7
 79
     5
170
     0
171
     0
290
     0
174
     0
 93
        1
 44
0.0
173
     0
291
     1
 45
0.0
1001
ACAD
1000
AcDbSavedByObjectVersion
1070
     0
  0
DICTIONARYVAR
  5
37C
102
{ACAD_REACTORS
330
379
102
}
330
379
100
DictionaryVariables
280
     0
  1
1:1
  0
DICTIONARYVAR
  5
37B
102
{ACAD_REACTORS
330
379
102
}
330
379
100
DictionaryVariables
280
     0
  1
STANDARD
  0
DICTIONARYVAR
  5
37A
102
{ACAD_REACTORS
330
379
102
}
330
379
100
DictionaryVariables
280
     0
  1
STANDARD
  0
DICTIONARYVAR
  5
380
102
{ACAD_REACTORS
330
379
102
}
330
379
100
DictionaryVariables
280
     0
  1
2
  0
DICTIONARYVAR
  5
37F
102
{ACAD_REACTORS
330
379
102
}
330
379
100
DictionaryVariables
280
     0
  1
1
  0
DICTIONARYVAR
  5
37E
102
{ACAD_REACTORS
330
379
102
}
330
379
100
DictionaryVariables
280
     0
  1
0
  0
DICTIONARYVAR
  5
37D
102
{ACAD_REACTORS
330
379
102
}
330
379
100
DictionaryVariables
280
     0
  1
127
  0
VLO-VL
  5
36E
102
{ACAD_REACTORS
330
36D
102
}
330
36D
100
vlo_VL
 90
   -64512
 91
       12
 92
        1
 40
2.5
300
(&VLO-R . 0)
  0
DICTIONARY
  5
387
330
24
100
AcDbDictionary
280
     1
281
     1
  3
ACAD_XREC_ROUNDTRIP
360
388
  0
DICTIONARY
  5
385
330
20
100
AcDbDictionary
280
     1
281
     1
  3
ACAD_XREC_ROUNDTRIP
360
386
  0
DICTIONARY
  5
389
330
28
100
AcDbDictionary
280
     1
281
     1
  3
ACAD_XREC_ROUNDTRIP
360
38A
  0
DICTIONARY
  5
323
330
322
100
AcDbDictionary
280
     1
281
     1
  3
ACAD_XREC_ROUNDTRIP
360
38C
  3
BUMPTILE
360
325
  3
DIFFUSETILE
360
324
  3
OPACITYTILE
360
328
  3
REFLECTIONTILE
360
327
  3
REFRACTIONTILE
360
329
  3
SPECULARTILE
360
326
  0
DICTIONARY
  5
31B
330
31A
100
AcDbDictionary
280
     1
281
     1
  3
ACAD_XREC_ROUNDTRIP
360
38B
  3
BUMPTILE
360
31D
  3
DIFFUSETILE
360
31C
  3
OPACITYTILE
360
320
  3
REFLECTIONTILE
360
31F
  3
REFRACTIONTILE
360
321
  3
SPECULARTILE
360
31E
  0
DICTIONARY
  5
32B
330
32A
100
AcDbDictionary
280
     1
281
     1
  3
ACAD_XREC_ROUNDTRIP
360
38D
  3
BUMPTILE
360
32D
  3
DIFFUSETILE
360
32C
  3
OPACITYTILE
360
330
  3
REFLECTIONTILE
360
32F
  3
REFRACTIONTILE
360
331
  3
SPECULARTILE
360
32E
  0
DICTIONARY
  5
381
330
344
100
AcDbDictionary
280
     1
281
     1
  3
ACAD_ROUNDTRIP_2008_TABLESTYLE_CELLSTYLEMAP
360
382
  3
ACAD_XREC_ROUNDTRIP
360
38E
  0
XRECORD
  5
388
102
{ACAD_REACTORS
330
387
102
}
330
387
100
AcDbXrecord
280
     1
102
SHADEPLOT
 70
     0
102
SHADEPLOTRESLEVEL
 70
     2
102
SHADEPLOTCUSTOMDPI
 70
   300
  0
XRECORD
  5
386
102
{ACAD_REACTORS
330
385
102
}
330
385
100
AcDbXrecord
280
     1
102
SHADEPLOT
 70
     0
102
SHADEPLOTRESLEVEL
 70
     2
102
SHADEPLOTCUSTOMDPI
 70
   300
  0
XRECORD
  5
38A
102
{ACAD_REACTORS
330
389
102
}
330
389
100
AcDbXrecord
280
     1
102
SHADEPLOT
 70
     0
102
SHADEPLOTRESLEVEL
 70
     2
102
SHADEPLOTCUSTOMDPI
 70
   300
  0
XRECORD
  5
38C
102
{ACAD_REACTORS
330
323
102
}
330
323
100
AcDbXrecord
280
     1
102
MATERIAL
148
0.0
149
0.0
149
0.0
 93
        0
 94
      127
282
     0
 72
     0
 77
     0
171
     0
175
     0
179
     0
273
     0
  0
XRECORD
  5
325
102
{ACAD_REACTORS
330
323
102
}
330
323
100
AcDbXrecord
280
     1
270
     1
271
     1
  0
XRECORD
  5
324
102
{ACAD_REACTORS
330
323
102
}
330
323
100
AcDbXrecord
280
     1
270
     1
271
     1
  0
XRECORD
  5
328
102
{ACAD_REACTORS
330
323
102
}
330
323
100
AcDbXrecord
280
     1
270
     1
271
     1
  0
XRECORD
  5
327
102
{ACAD_REACTORS
330
323
102
}
330
323
100
AcDbXrecord
280
     1
270
     1
271
     1
  0
XRECORD
  5
329
102
{ACAD_REACTORS
330
323
102
}
330
323
100
AcDbXrecord
280
     1
270
     1
271
     1
  0
XRECORD
  5
326
102
{ACAD_REACTORS
330
323
102
}
330
323
100
AcDbXrecord
280
     1
270
     1
271
     1
  0
XRECORD
  5
38B
102
{ACAD_REACTORS
330
31B
102
}
330
31B
100
AcDbXrecord
280
     1
102
MATERIAL
148
0.0
149
0.0
149
0.0
 93
        0
 94
      127
282
     0
 72
     0
 77
     0
171
     0
175
     0
179
     0
273
     0
  0
XRECORD
  5
31D
102
{ACAD_REACTORS
330
31B
102
}
330
31B
100
AcDbXrecord
280
     1
270
     1
271
     1
  0
XRECORD
  5
31C
102
{ACAD_REACTORS
330
31B
102
}
330
31B
100
AcDbXrecord
280
     1
270
     1
271
     1
  0
XRECORD
  5
320
102
{ACAD_REACTORS
330
31B
102
}
330
31B
100
AcDbXrecord
280
     1
270
     1
271
     1
  0
XRECORD
  5
31F
102
{ACAD_REACTORS
330
31B
102
}
330
31B
100
AcDbXrecord
280
     1
270
     1
271
     1
  0
XRECORD
  5
321
102
{ACAD_REACTORS
330
31B
102
}
330
31B
100
AcDbXrecord
280
     1
270
     1
271
     1
  0
XRECORD
  5
31E
102
{ACAD_REACTORS
330
31B
102
}
330
31B
100
AcDbXrecord
280
     1
270
     1
271
     1
  0
XRECORD
  5
38D
102
{ACAD_REACTORS
330
32B
102
}
330
32B
100
AcDbXrecord
280
     1
102
MATERIAL
148
0.0
149
0.0
149
0.0
 93
        0
 94
      127
282
     0
 72
     0
 77
     0
171
     0
175
     0
179
     0
273
     0
  0
XRECORD
  5
32D
102
{ACAD_REACTORS
330
32B
102
}
330
32B
100
AcDbXrecord
280
     1
270
     1
271
     1
  0
XRECORD
  5
32C
102
{ACAD_REACTORS
330
32B
102
}
330
32B
100
AcDbXrecord
280
     1
270
     1
271
     1
  0
XRECORD
  5
330
102
{ACAD_REACTORS
330
32B
102
}
330
32B
100
AcDbXrecord
280
     1
270
     1
271
     1
  0
XRECORD
  5
32F
102
{ACAD_REACTORS
330
32B
102
}
330
32B
100
AcDbXrecord
280
     1
270
     1
271
     1
  0
XRECORD
  5
331
102
{ACAD_REACTORS
330
32B
102
}
330
32B
100
AcDbXrecord
280
     1
270
     1
271
     1
  0
XRECORD
  5
32E
102
{ACAD_REACTORS
330
32B
102
}
330
32B
100
AcDbXrecord
280
     1
270
     1
271
     1
  0
CELLSTYLEMAP
  5
382
102
{ACAD_REACTORS
330
381
102
}
330
381
100
AcDbCellStyleMap
 90
        3
300
CELLSTYLE
  1
TABLEFORMAT_BEGIN
 90
        5
170
     1
 91
        0
 92
    32768
 62
   257
 93
        1
300
CONTENTFORMAT
  1
CONTENTFORMAT_BEGIN
 90
        0
 91
        0
 92
      512
 93
        0
300

 40
0.0
140
1.0
 94
        5
 62
     0
340
11
144
6.0
309
CONTENTFORMAT_END
171
     1
301
MARGIN
  1
CELLMARGIN_BEGIN
 40
1.5
 40
1.5
 40
1.5
 40
1.5
 40
4.5
 40
4.5
309
CELLMARGIN_END
 94
        6
 95
        1
302
GRIDFORMAT
  1
GRIDFORMAT_BEGIN
 90
        0
 91
        1
 62
     0
 92
       -2
340
0
 93
        0
 40
1.125
309
GRIDFORMAT_END
 95
        2
302
GRIDFORMAT
  1
GRIDFORMAT_BEGIN
 90
        0
 91
        1
 62
     0
 92
       -2
340
0
 93
        0
 40
1.125
309
GRIDFORMAT_END
 95
        4
302
GRIDFORMAT
  1
GRIDFORMAT_BEGIN
 90
        0
 91
        1
 62
     0
 92
       -2
340
0
 93
        0
 40
1.125
309
GRIDFORMAT_END
 95
        8
302
GRIDFORMAT
  1
GRIDFORMAT_BEGIN
 90
        0
 91
        1
 62
     0
 92
       -2
340
0
 93
        0
 40
1.125
309
GRIDFORMAT_END
 95
       16
302
GRIDFORMAT
  1
GRIDFORMAT_BEGIN
 90
        0
 91
        1
 62
     0
 92
       -2
340
0
 93
        0
 40
1.125
309
GRIDFORMAT_END
 95
       32
302
GRIDFORMAT
  1
GRIDFORMAT_BEGIN
 90
        0
 91
        1
 62
     0
 92
       -2
340
0
 93
        0
 40
1.125
309
GRIDFORMAT_END
309
TABLEFORMAT_END
  1
CELLSTYLE_BEGIN
 90
        1
 91
        1
300
_TITLE
309
CELLSTYLE_END
300
CELLSTYLE
  1
TABLEFORMAT_BEGIN
 90
        5
170
     1
 91
        0
 92
        0
 62
   257
 93
        1
300
CONTENTFORMAT
  1
CONTENTFORMAT_BEGIN
 90
        0
 91
        0
 92
      512
 93
        0
300

 40
0.0
140
1.0
 94
        5
 62
     0
340
11
144
4.5
309
CONTENTFORMAT_END
171
     1
301
MARGIN
  1
CELLMARGIN_BEGIN
 40
1.5
 40
1.5
 40
1.5
 40
1.5
 40
4.5
 40
4.5
309
CELLMARGIN_END
 94
        6
 95
        1
302
GRIDFORMAT
  1
GRIDFORMAT_BEGIN
 90
        0
 91
        1
 62
     0
 92
       -2
340
0
 93
        0
 40
1.125
309
GRIDFORMAT_END
 95
        2
302
GRIDFORMAT
  1
GRIDFORMAT_BEGIN
 90
        0
 91
        1
 62
     0
 92
       -2
340
0
 93
        0
 40
1.125
309
GRIDFORMAT_END
 95
        4
302
GRIDFORMAT
  1
GRIDFORMAT_BEGIN
 90
        0
 91
        1
 62
     0
 92
       -2
340
0
 93
        0
 40
1.125
309
GRIDFORMAT_END
 95
        8
302
GRIDFORMAT
  1
GRIDFORMAT_BEGIN
 90
        0
 91
        1
 62
     0
 92
       -2
340
0
 93
        0
 40
1.125
309
GRIDFORMAT_END
 95
       16
302
GRIDFORMAT
  1
GRIDFORMAT_BEGIN
 90
        0
 91
        1
 62
     0
 92
       -2
340
0
 93
        0
 40
1.125
309
GRIDFORMAT_END
 95
       32
302
GRIDFORMAT
  1
GRIDFORMAT_BEGIN
 90
        0
 91
        1
 62
     0
 92
       -2
340
0
 93
        0
 40
1.125
309
GRIDFORMAT_END
309
TABLEFORMAT_END
  1
CELLSTYLE_BEGIN
 90
        2
 91
        1
300
_HEADER
309
CELLSTYLE_END
300
CELLSTYLE
  1
TABLEFORMAT_BEGIN
 90
        5
170
     1
 91
        0
 92
        0
 62
   257
 93
        1
300
CONTENTFORMAT
  1
CONTENTFORMAT_BEGIN
 90
        0
 91
        0
 92
      512
 93
        0
300

 40
0.0
140
1.0
 94
        2
 62
     0
340
11
144
4.5
309
CONTENTFORMAT_END
171
     1
301
MARGIN
  1
CELLMARGIN_BEGIN
 40
1.5
 40
1.5
 40
1.5
 40
1.5
 40
4.5
 40
4.5
309
CELLMARGIN_END
 94
        6
 95
        1
302
GRIDFORMAT
  1
GRIDFORMAT_BEGIN
 90
        0
 91
        1
 62
     0
 92
       -2
340
0
 93
        0
 40
1.125
309
GRIDFORMAT_END
 95
        2
302
GRIDFORMAT
  1
GRIDFORMAT_BEGIN
 90
        0
 91
        1
 62
     0
 92
       -2
340
0
 93
        0
 40
1.125
309
GRIDFORMAT_END
 95
        4
302
GRIDFORMAT
  1
GRIDFORMAT_BEGIN
 90
        0
 91
        1
 62
     0
 92
       -2
340
0
 93
        0
 40
1.125
309
GRIDFORMAT_END
 95
        8
302
GRIDFORMAT
  1
GRIDFORMAT_BEGIN
 90
        0
 91
        1
 62
     0
 92
       -2
340
0
 93
        0
 40
1.125
309
GRIDFORMAT_END
 95
       16
302
GRIDFORMAT
  1
GRIDFORMAT_BEGIN
 90
        0
 91
        1
 62
     0
 92
       -2
340
0
 93
        0
 40
1.125
309
GRIDFORMAT_END
 95
       32
302
GRIDFORMAT
  1
GRIDFORMAT_BEGIN
 90
        0
 91
        1
 62
     0
 92
       -2
340
0
 93
        0
 40
1.125
309
GRIDFORMAT_END
309
TABLEFORMAT_END
  1
CELLSTYLE_BEGIN
 90
        3
 91
        2
300
_DATA
309
CELLSTYLE_END
  0
XRECORD
  5
38E
102
{ACAD_REACTORS
330
381
102
}
330
381
100
AcDbXrecord
280
     1
102
ACAD_ROUNDTRIP_PRE2007_TABLESTYLE
 90
      512
 91
        0
  1

 92
      512
 93
        0
  2

 94
      512
 95
        0
  3

  0
ENDSEC
  0
EOF
